  0
SECTION
  2
HEADER
  9
$ACADVER
  1
AC1015
  9
$ACADMAINTVER
 70
     6
  9
$DWGCODEPAGE
  3
ANSI_1252
  9
$INSBASE
 10
0.0
 20
0.0
 30
0.0
  9
$EXTMIN
 10
0.0
 20
0.0
 30
0.0
  9
$EXTMAX
 10
594.0000000000003
 20
420.0000000000002
 30
0.0
  9
$LIMMIN
 10
0.0
 20
0.0
  9
$LIMMAX
 10
12.0
 20
9.0
  9
$ORTHOMODE
 70
     0
  9
$REGENMODE
 70
     1
  9
$FILLMODE
 70
     1
  9
$QTEXTMODE
 70
     0
  9
$MIRRTEXT
 70
     1
  9
$LTSCALE
 40
1.0
  9
$ATTMODE
 70
     1
  9
$TEXTSIZE
 40
0.2
  9
$TRACEWID
 40
0.05
  9
$TEXTSTYLE
  7
Standard
  9
$CLAYER
  8
0
  9
$CELTYPE
  6
ByLayer
  9
$CECOLOR
 62
   256
  9
$CELTSCALE
 40
1.0
  9
$DISPSILH
 70
     0
  9
$DIMSCALE
 40
1.0
  9
$DIMASZ
 40
0.18
  9
$DIMEXO
 40
0.0625
  9
$DIMDLI
 40
0.38
  9
$DIMRND
 40
0.0
  9
$DIMDLE
 40
0.0
  9
$DIMEXE
 40
0.18
  9
$DIMTP
 40
0.0
  9
$DIMTM
 40
0.0
  9
$DIMTXT
 40
0.18
  9
$DIMCEN
 40
0.09
  9
$DIMTSZ
 40
0.0
  9
$DIMTOL
 70
     0
  9
$DIMLIM
 70
     0
  9
$DIMTIH
 70
     1
  9
$DIMTOH
 70
     1
  9
$DIMSE1
 70
     0
  9
$DIMSE2
 70
     0
  9
$DIMTAD
 70
     0
  9
$DIMZIN
 70
     0
  9
$DIMBLK
  1

  9
$DIMASO
 70
     1
  9
$DIMSHO
 70
     1
  9
$DIMPOST
  1

  9
$DIMAPOST
  1

  9
$DIMALT
 70
     0
  9
$DIMALTD
 70
     2
  9
$DIMALTF
 40
25.4
  9
$DIMLFAC
 40
1.0
  9
$DIMTOFL
 70
     0
  9
$DIMTVP
 40
0.0
  9
$DIMTIX
 70
     0
  9
$DIMSOXD
 70
     0
  9
$DIMSAH
 70
     0
  9
$DIMBLK1
  1

  9
$DIMBLK2
  1

  9
$DIMSTYLE
  2
Standard
  9
$DIMCLRD
 70
     0
  9
$DIMCLRE
 70
     0
  9
$DIMCLRT
 70
     0
  9
$DIMTFAC
 40
1.0
  9
$DIMGAP
 40
0.09
  9
$DIMJUST
 70
     0
  9
$DIMSD1
 70
     0
  9
$DIMSD2
 70
     0
  9
$DIMTOLJ
 70
     1
  9
$DIMTZIN
 70
     0
  9
$DIMALTZ
 70
     0
  9
$DIMALTTZ
 70
     0
  9
$DIMUPT
 70
     0
  9
$DIMDEC
 70
     4
  9
$DIMTDEC
 70
     4
  9
$DIMALTU
 70
     2
  9
$DIMALTTD
 70
     2
  9
$DIMTXSTY
  7
Standard
  9
$DIMAUNIT
 70
     0
  9
$DIMADEC
 70
     0
  9
$DIMALTRND
 40
0.0
  9
$DIMAZIN
 70
     0
  9
$DIMDSEP
 70
    46
  9
$DIMATFIT
 70
     3
  9
$DIMFRAC
 70
     0
  9
$DIMLDRBLK
  1

  9
$DIMLUNIT
 70
     2
  9
$DIMLWD
 70
    -2
  9
$DIMLWE
 70
    -2
  9
$DIMTMOVE
 70
     0
  9
$LUNITS
 70
     2
  9
$LUPREC
 70
     4
  9
$SKETCHINC
 40
0.1
  9
$FILLETRAD
 40
0.5
  9
$AUNITS
 70
     0
  9
$AUPREC
 70
     0
  9
$MENU
  1
.
  9
$ELEVATION
 40
0.0
  9
$PELEVATION
 40
0.0
  9
$THICKNESS
 40
0.0
  9
$LIMCHECK
 70
     0
  9
$CHAMFERA
 40
0.5
  9
$CHAMFERB
 40
0.5
  9
$CHAMFERC
 40
1.0
  9
$CHAMFERD
 40
0.0
  9
$SKPOLY
 70
     0
  9
$TDCREATE
 40
2456997.616379456
  9
$TDUCREATE
 40
2456997.574712789
  9
$TDUPDATE
 40
2456997.616379826
  9
$TDUUPDATE
 40
2456997.57471316
  9
$TDINDWG
 40
0.0000000116
  9
$TDUSRTIMER
 40
0.0000000116
  9
$USRTIMER
 70
     1
  9
$ANGBASE
 50
0.0
  9
$ANGDIR
 70
     0
  9
$PDMODE
 70
     0
  9
$PDSIZE
 40
0.0
  9
$PLINEWID
 40
0.0
  9
$SPLFRAME
 70
     0
  9
$SPLINETYPE
 70
     6
  9
$SPLINESEGS
 70
     8
  9
$HANDSEED
  5
421
  9
$SURFTAB1
 70
     6
  9
$SURFTAB2
 70
     6
  9
$SURFTYPE
 70
     6
  9
$SURFU
 70
     6
  9
$SURFV
 70
     6
  9
$UCSBASE
  2

  9
$UCSNAME
  2

  9
$UCSORG
 10
0.0
 20
0.0
 30
0.0
  9
$UCSXDIR
 10
1.0
 20
0.0
 30
0.0
  9
$UCSYDIR
 10
0.0
 20
1.0
 30
0.0
  9
$UCSORTHOREF
  2

  9
$UCSORTHOVIEW
 70
     0
  9
$UCSORGTOP
 10
0.0
 20
0.0
 30
0.0
  9
$UCSORGBOTTOM
 10
0.0
 20
0.0
 30
0.0
  9
$UCSORGLEFT
 10
0.0
 20
0.0
 30
0.0
  9
$UCSORGRIGHT
 10
0.0
 20
0.0
 30
0.0
  9
$UCSORGFRONT
 10
0.0
 20
0.0
 30
0.0
  9
$UCSORGBACK
 10
0.0
 20
0.0
 30
0.0
  9
$PUCSBASE
  2

  9
$PUCSNAME
  2

  9
$PUCSORG
 10
0.0
 20
0.0
 30
0.0
  9
$PUCSXDIR
 10
1.0
 20
0.0
 30
0.0
  9
$PUCSYDIR
 10
0.0
 20
1.0
 30
0.0
  9
$PUCSORTHOREF
  2

  9
$PUCSORTHOVIEW
 70
     0
  9
$PUCSORGTOP
 10
0.0
 20
0.0
 30
0.0
  9
$PUCSORGBOTTOM
 10
0.0
 20
0.0
 30
0.0
  9
$PUCSORGLEFT
 10
0.0
 20
0.0
 30
0.0
  9
$PUCSORGRIGHT
 10
0.0
 20
0.0
 30
0.0
  9
$PUCSORGFRONT
 10
0.0
 20
0.0
 30
0.0
  9
$PUCSORGBACK
 10
0.0
 20
0.0
 30
0.0
  9
$USERI1
 70
     0
  9
$USERI2
 70
     0
  9
$USERI3
 70
     0
  9
$USERI4
 70
     0
  9
$USERI5
 70
     0
  9
$USERR1
 40
18.1
  9
$USERR2
 40
0.0
  9
$USERR3
 40
0.0
  9
$USERR4
 40
0.0
  9
$USERR5
 40
0.0
  9
$WORLDVIEW
 70
     1
  9
$SHADEDGE
 70
     3
  9
$SHADEDIF
 70
    70
  9
$TILEMODE
 70
     1
  9
$MAXACTVP
 70
    64
  9
$PINSBASE
 10
0.0
 20
0.0
 30
0.0
  9
$PLIMCHECK
 70
     0
  9
$PEXTMIN
 10
1.00000000000000E+20
 20
1.00000000000000E+20
 30
1.00000000000000E+20
  9
$PEXTMAX
 10
-1.00000000000000E+20
 20
-1.00000000000000E+20
 30
-1.00000000000000E+20
  9
$PLIMMIN
 10
0.0
 20
0.0
  9
$PLIMMAX
 10
12.0
 20
9.0
  9
$UNITMODE
 70
     0
  9
$VISRETAIN
 70
     1
  9
$PLINEGEN
 70
     0
  9
$PSLTSCALE
 70
     1
  9
$TREEDEPTH
 70
  3020
  9
$CMLSTYLE
  2
Standard
  9
$CMLJUST
 70
     0
  9
$CMLSCALE
 40
1.0
  9
$PROXYGRAPHICS
 70
     1
  9
$MEASUREMENT
 70
     1
  9
$CELWEIGHT
370
    -1
  9
$ENDCAPS
280
     0
  9
$JOINSTYLE
280
     0
  9
$LWDISPLAY
290
     0
  9
$INSUNITS
 70
     4
  9
$HYPERLINKBASE
  1

  9
$STYLESHEET
  1

  9
$XEDIT
290
     1
  9
$CEPSNTYPE
380
     0
  9
$PSTYLEMODE
290
     1
  9
$FINGERPRINTGUID
  2
{7D37BB37-1601-4117-9F91-56A45B3E66EB}
  9
$VERSIONGUID
  2
{FAEB1C32-E019-11D5-929B-00C0DF256EC4}
  9
$EXTNAMES
290
     1
  9
$PSVPSCALE
 40
0.0
  9
$OLESTARTUP
290
     0
  0
ENDSEC
  0
SECTION
  2
CLASSES
  0
CLASS
  1
ACDBDICTIONARYWDFLT
  2
AcDbDictionaryWithDefault
  3
ObjectDBX Classes
 90
        0
280
     0
281
     0
  0
CLASS
  1
VISUALSTYLE
  2
AcDbVisualStyle
  3
ObjectDBX Classes
 90
     4095
280
     0
281
     0
  0
CLASS
  1
MATERIAL
  2
AcDbMaterial
  3
ObjectDBX Classes
 90
     1153
280
     0
281
     0
  0
CLASS
  1
DICTIONARYVAR
  2
AcDbDictionaryVar
  3
ObjectDBX Classes
 90
        0
280
     0
281
     0
  0
CLASS
  1
ACDBPLACEHOLDER
  2
AcDbPlaceHolder
  3
ObjectDBX Classes
 90
        0
280
     0
281
     0
  0
CLASS
  1
LAYOUT
  2
AcDbLayout
  3
ObjectDBX Classes
 90
        0
280
     0
281
     0
  0
ENDSEC
  0
SECTION
  2
TABLES
  0
TABLE
  2
VPORT
  5
8
330
0
100
AcDbSymbolTable
 70
     1
  0
VPORT
  5
29
330
8
100
AcDbSymbolTableRecord
100
AcDbViewportTableRecord
  2
*Active
 70
     0
 10
0.0
 20
0.0
 11
1.0
 21
1.0
 12
297.0000000000002
 22
210.0000000000001
 13
0.0
 23
0.0
 14
0.5
 24
0.5
 15
0.5
 25
0.5
 16
0.0
 26
0.0
 36
1.0
 17
0.0
 27
0.0
 37
0.0
 40
462.0000000000003
 41
1.60267857142857
 42
50.0
 43
0.0
 44
0.0
 50
0.0
 51
0.0
 71
     0
 72
   100
 73
     1
 74
     3
 75
     0
 76
     0
 77
     0
 78
     0
281
     0
 65
     1
110
0.0
120
0.0
130
0.0
111
1.0
121
0.0
131
0.0
112
0.0
122
1.0
132
0.0
 79
     0
146
0.0
  0
ENDTAB
  0
TABLE
  2
LTYPE
  5
5
330
0
100
AcDbSymbolTable
 70
     8
  0
LTYPE
  5
14
330
5
100
AcDbSymbolTableRecord
100
AcDbLinetypeTableRecord
  2
ByBlock
 70
     0
  3

 72
    65
 73
     0
 40
0.0
  0
LTYPE
  5
15
330
5
100
AcDbSymbolTableRecord
100
AcDbLinetypeTableRecord
  2
ByLayer
 70
     0
  3

 72
    65
 73
     0
 40
0.0
  0
LTYPE
  5
16
330
5
100
AcDbSymbolTableRecord
100
AcDbLinetypeTableRecord
  2
Continuous
 70
     0
  3
Solid line
 72
    65
 73
     0
 40
0.0
  0
LTYPE
  5
3F
330
5
100
AcDbSymbolTableRecord
100
AcDbLinetypeTableRecord
  2
DASHED
 70
     0
  3
Dashed
 72
    65
 73
     2
 40
15.0
 49
7.0
 74
     0
 49
-8.0
 74
     0
  0
LTYPE
  5
40
330
5
100
AcDbSymbolTableRecord
100
AcDbLinetypeTableRecord
  2
DOTTED
 70
     0
  3
Dotted
 72
    65
 73
     2
 40
1.0
 49
0.0
 74
     0
 49
-1.0
 74
     0
  0
LTYPE
  5
41
330
5
100
AcDbSymbolTableRecord
100
AcDbLinetypeTableRecord
  2
DOT_CENTER
 70
     0
  3
Dot_Center
 72
    65
 73
     4
 40
14.0
 49
12.0
 74
     0
 49
-1.0
 74
     0
 49
0.0
 74
     0
 49
-1.0
 74
     0
  0
LTYPE
  5
42
330
5
100
AcDbSymbolTableRecord
100
AcDbLinetypeTableRecord
  2
LONG_DASHED
 70
     0
  3
Long_Dashed
 72
    65
 73
     2
 40
15.0
 49
10.0
 74
     0
 49
-5.0
 74
     0
  0
LTYPE
  5
43
330
5
100
AcDbSymbolTableRecord
100
AcDbLinetypeTableRecord
  2
DASH_CENTER
 70
     0
  3
Dash_Center
 72
    65
 73
     4
 40
14.0
 49
11.0
 74
     0
 49
-1.0
 74
     0
 49
1.0
 74
     0
 49
-1.0
 74
     0
  0
LTYPE
  5
44
330
5
100
AcDbSymbolTableRecord
100
AcDbLinetypeTableRecord
  2
PHANTOM
 70
     0
  3
Phantom
 72
    65
 73
     6
 40
13.0
 49
10.0
 74
     0
 49
-1.0
 74
     0
 49
0.0
 74
     0
 49
-1.0
 74
     0
 49
0.0
 74
     0
 49
-1.0
 74
     0
  0
LTYPE
  5
45
330
5
100
AcDbSymbolTableRecord
100
AcDbLinetypeTableRecord
  2
CENTER_DASH_DASH
 70
     0
  3
Center_Dash_Dash
 72
    65
 73
     6
 40
14.0
 49
9.0
 74
     0
 49
-1.0
 74
     0
 49
1.0
 74
     0
 49
-1.0
 74
     0
 49
1.0
 74
     0
 49
-1.0
 74
     0
  0
ENDTAB
  0
TABLE
  2
LAYER
  5
2
330
0
100
AcDbSymbolTable
 70
     8
  0
LAYER
  5
10
330
2
100
AcDbSymbolTableRecord
100
AcDbLayerTableRecord
  2
0
 70
     0
 62
     7
  6
Continuous
370
    -3
390
F
  0
LAYER
  5
46
330
2
100
AcDbSymbolTableRecord
100
AcDbLayerTableRecord
  2
1
 70
     0
 62
     7
  6
Continuous
370
    -3
390
F
  0
LAYER
  5
47
330
2
100
AcDbSymbolTableRecord
100
AcDbLayerTableRecord
  2
Bemaßungen_TC_020513_DIN_
 70
     0
 62
     7
  6
Continuous
370
    -3
390
F
  0
LAYER
  5
48
330
2
100
AcDbSymbolTableRecord
100
AcDbLayerTableRecord
  2
DISEGNO
 70
     0
 62
     7
  6
Continuous
370
    -3
390
F
  0
LAYER
  5
49
330
2
100
AcDbSymbolTableRecord
100
AcDbLayerTableRecord
  2
Mittellinie_TC_020513_DIN_
 70
     0
 62
     7
  6
Continuous
370
    -3
390
F
  0
LAYER
  5
4A
330
2
100
AcDbSymbolTableRecord
100
AcDbLayerTableRecord
  2
Mittelpunktmarkierung_TC_020513_DIN_
 70
     0
 62
     7
  6
Continuous
370
    -3
390
F
  0
LAYER
  5
4B
330
2
100
AcDbSymbolTableRecord
100
AcDbLayerTableRecord
  2
Skizziergeometrie_TC_020513_DIN_
 70
     0
 62
     7
  6
Continuous
370
    -3
390
F
  0
LAYER
  5
4C
330
2
100
AcDbSymbolTableRecord
100
AcDbLayerTableRecord
  2
Symbole_TC_020513_DIN_
 70
     0
 62
     7
  6
Continuous
370
    -3
390
F
  0
ENDTAB
  0
TABLE
  2
STYLE
  5
3
330
0
100
AcDbSymbolTable
 70
     5
  0
STYLE
  5
11
330
3
100
AcDbSymbolTableRecord
100
AcDbTextStyleTableRecord
  2
Standard
 70
     0
 40
0.0
 41
1.0
 50
0.0
 71
     0
 42
0.2
  3
txt
  4

  0
STYLE
  5
A0
330
3
100
AcDbSymbolTableRecord
100
AcDbTextStyleTableRecord
  2
CONVERTER_11
 70
     0
 40
0.0
 41
1.2
 50
0.0
 71
     0
 42
0.2
  3
ARIAL.TTF
  4

  0
STYLE
  5
384
330
3
100
AcDbSymbolTableRecord
100
AcDbTextStyleTableRecord
  2
CONVERTER_12
 70
     0
 40
0.0
 41
0.8505
 50
0.0
 71
     0
 42
0.2
  3
txt.shx
  4

  0
STYLE
  5
386
330
3
100
AcDbSymbolTableRecord
100
AcDbTextStyleTableRecord
  2
CONVERTER_13
 70
     0
 40
0.0
 41
0.9
 50
0.0
 71
     0
 42
0.2
  3
txt.shx
  4

  0
STYLE
  5
38E
330
3
100
AcDbSymbolTableRecord
100
AcDbTextStyleTableRecord
  2
CONVERTER_14
 70
     0
 40
0.0
 41
0.95
 50
0.0
 71
     0
 42
0.2
  3
simplex.shx
  4

  0
ENDTAB
  0
TABLE
  2
VIEW
  5
6
330
0
100
AcDbSymbolTable
 70
     0
  0
ENDTAB
  0
TABLE
  2
UCS
  5
7
330
0
100
AcDbSymbolTable
 70
     0
  0
ENDTAB
  0
TABLE
  2
APPID
  5
9
330
0
100
AcDbSymbolTable
 70
     1
  0
APPID
  5
12
330
9
100
AcDbSymbolTableRecord
100
AcDbRegAppTableRecord
  2
ACAD
 70
     0
  0
ENDTAB
  0
TABLE
  2
DIMSTYLE
  5
A
330
0
100
AcDbSymbolTable
 70
    10
100
AcDbDimStyleTable
  0
DIMSTYLE
105
27
330
A
100
AcDbSymbolTableRecord
100
AcDbDimStyleTableRecord
  2
Standard
 70
     0
178
     0
340
11
  0
DIMSTYLE
105
392
102
{ACAD_REACTORS
330
393
102
}
330
A
100
AcDbSymbolTableRecord
100
AcDbDimStyleTableRecord
  2
ME10_DIM_10
 70
     0
 41
6.0
 42
1.0
 44
2.0
 73
     0
 74
     0
 77
     1
 78
     8
140
6.0
147
4.0
172
     1
173
     1
174
     1
175
     1
176
     2
177
     2
271
     2
178
     4
271
     2
340
38E
  0
DIMSTYLE
105
39D
102
{ACAD_REACTORS
330
39E
102
}
330
A
100
AcDbSymbolTableRecord
100
AcDbDimStyleTableRecord
  2
ME10_DIM_11
 70
     0
 41
6.0
 42
1.0
 44
2.0
 73
     0
 74
     0
 77
     1
 78
     8
140
6.0
147
4.0
172
     1
173
     1
174
     1
175
     1
176
     2
177
     2
271
     2
178
     4
271
     2
340
38E
  0
DIMSTYLE
105
3A8
102
{ACAD_REACTORS
330
3A9
102
}
330
A
100
AcDbSymbolTableRecord
100
AcDbDimStyleTableRecord
  2
ME10_DIM_12
 70
     0
 41
6.0
 42
1.0
 44
2.0
 73
     0
 74
     0
 77
     1
 78
     8
140
6.0
147
4.0
172
     1
173
     1
174
     1
175
     1
176
     2
177
     2
271
     2
178
     4
271
     2
340
38E
  0
DIMSTYLE
105
3B3
102
{ACAD_REACTORS
330
3B4
102
}
330
A
100
AcDbSymbolTableRecord
100
AcDbDimStyleTableRecord
  2
ME10_DIM_13
 70
     0
 41
6.0
 42
1.0
 44
2.0
 73
     0
 74
     0
 77
     1
 78
     8
140
6.0
147
4.0
172
     1
173
     1
174
     1
175
     1
176
     2
177
     2
271
     2
178
     4
271
     2
340
38E
  0
DIMSTYLE
105
3BE
102
{ACAD_REACTORS
330
3BF
102
}
330
A
100
AcDbSymbolTableRecord
100
AcDbDimStyleTableRecord
  2
ME10_DIM_14
 70
     0
 41
6.0
 42
1.0
 44
2.0
 73
     0
 74
     0
 77
     1
 78
     8
140
6.0
147
4.0
172
     1
173
     1
174
     1
175
     1
176
     2
177
     2
271
     2
178
     4
271
     2
340
38E
  0
DIMSTYLE
105
3C9
102
{ACAD_REACTORS
330
3CA
102
}
330
A
100
AcDbSymbolTableRecord
100
AcDbDimStyleTableRecord
  2
ME10_DIM_15
 70
     0
 41
6.0
 42
1.0
 44
2.0
 73
     0
 74
     0
 77
     1
 78
     8
140
6.0
147
4.0
172
     1
173
     1
174
     1
175
     1
176
     2
177
     2
271
     2
178
     4
271
     2
340
38E
  0
DIMSTYLE
105
3D6
102
{ACAD_REACTORS
330
3D7
102
}
330
A
100
AcDbSymbolTableRecord
100
AcDbDimStyleTableRecord
  2
ME10_DIM_16
 70
     0
 41
6.0
 42
1.0
 44
2.0
 73
     0
 74
     0
 77
     1
 78
     8
140
6.0
147
4.0
172
     1
173
     1
174
     1
175
     1
176
     2
177
     2
271
     2
178
     4
271
     2
340
38E
  0
DIMSTYLE
105
3E1
102
{ACAD_REACTORS
330
3E2
102
}
330
A
100
AcDbSymbolTableRecord
100
AcDbDimStyleTableRecord
  2
ME10_DIM_17
 70
     0
 41
6.0
 42
1.0
 44
2.0
 73
     0
 74
     0
 77
     1
 78
     8
140
6.0
147
4.0
172
     1
173
     1
174
     1
175
     1
176
     2
177
     2
271
     2
178
     4
271
     2
340
38E
  0
DIMSTYLE
105
3EC
102
{ACAD_REACTORS
330
3ED
102
}
330
A
100
AcDbSymbolTableRecord
100
AcDbDimStyleTableRecord
  2
ME10_DIM_18
 70
     0
 41
6.0
 42
1.0
 44
2.0
 73
     0
 74
     0
 77
     1
 78
     8
140
6.0
147
4.0
172
     1
173
     1
174
     1
175
     1
176
     2
177
     2
271
     2
178
     4
271
     2
340
38E
  0
ENDTAB
  0
TABLE
  2
BLOCK_RECORD
  5
1
330
0
100
AcDbSymbolTable
 70
    13
  0
BLOCK_RECORD
  5
1F
330
1
100
AcDbSymbolTableRecord
100
AcDbBlockTableRecord
  2
*Model_Space
340
22
  0
BLOCK_RECORD
  5
1B
330
1
100
AcDbSymbolTableRecord
100
AcDbBlockTableRecord
  2
*Paper_Space
340
1E
  0
BLOCK_RECORD
  5
23
330
1
100
AcDbSymbolTableRecord
100
AcDbBlockTableRecord
  2
*Paper_Space0
340
26
  0
BLOCK_RECORD
  5
4D
330
1
100
AcDbSymbolTableRecord
100
AcDbBlockTableRecord
  2
_formato_A4
340
0
102
{BLKREFS
331
51
102
}
  0
BLOCK_RECORD
  5
50
330
1
100
AcDbSymbolTableRecord
100
AcDbBlockTableRecord
  2
A4_oriz
340
0
102
{BLKREFS
331
54
102
}
  0
BLOCK_RECORD
  5
388
330
1
100
AcDbSymbolTableRecord
100
AcDbBlockTableRecord
  2
*D3
340
0
  0
BLOCK_RECORD
  5
394
330
1
100
AcDbSymbolTableRecord
100
AcDbBlockTableRecord
  2
*D4
340
0
  0
BLOCK_RECORD
  5
39F
330
1
100
AcDbSymbolTableRecord
100
AcDbBlockTableRecord
  2
*D5
340
0
  0
BLOCK_RECORD
  5
3AA
330
1
100
AcDbSymbolTableRecord
100
AcDbBlockTableRecord
  2
*D6
340
0
  0
BLOCK_RECORD
  5
3B5
330
1
100
AcDbSymbolTableRecord
100
AcDbBlockTableRecord
  2
*D7
340
0
  0
BLOCK_RECORD
  5
3C0
330
1
100
AcDbSymbolTableRecord
100
AcDbBlockTableRecord
  2
*D8
340
0
  0
BLOCK_RECORD
  5
3CB
330
1
100
AcDbSymbolTableRecord
100
AcDbBlockTableRecord
  2
*D9
340
0
  0
BLOCK_RECORD
  5
3D8
330
1
100
AcDbSymbolTableRecord
100
AcDbBlockTableRecord
  2
*D10
340
0
  0
BLOCK_RECORD
  5
3E3
330
1
100
AcDbSymbolTableRecord
100
AcDbBlockTableRecord
  2
*D11
340
0
  0
BLOCK_RECORD
  5
3EE
330
1
100
AcDbSymbolTableRecord
100
AcDbBlockTableRecord
  2
*D12
340
0
102
{BLKREFS
331
3F5
102
}
  0
ENDTAB
  0
ENDSEC
  0
SECTION
  2
BLOCKS
  0
BLOCK
  5
20
330
1F
100
AcDbEntity
  8
0
100
AcDbBlockBegin
  2
*Model_Space
 70
     0
 10
0.0
 20
0.0
 30
0.0
  3
*Model_Space
  1

  0
ENDBLK
  5
21
330
1F
100
AcDbEntity
  8
0
100
AcDbBlockEnd
  0
BLOCK
  5
1C
330
1B
100
AcDbEntity
 67
     1
  8
0
100
AcDbBlockBegin
  2
*Paper_Space
 70
     0
 10
0.0
 20
0.0
 30
0.0
  3
*Paper_Space
  1

  0
ENDBLK
  5
1D
330
1B
100
AcDbEntity
 67
     1
  8
0
100
AcDbBlockEnd
  0
BLOCK
  5
24
330
23
100
AcDbEntity
  8
0
100
AcDbBlockBegin
  2
*Paper_Space0
 70
     0
 10
0.0
 20
0.0
 30
0.0
  3
*Paper_Space0
  1

  0
ENDBLK
  5
25
330
23
100
AcDbEntity
  8
0
100
AcDbBlockEnd
  0
BLOCK
  5
4E
330
4D
100
AcDbEntity
  8
0
100
AcDbBlockBegin
  2
_formato_A4
 70
     0
 10
326.7856602822582
 20
112.7728704637095
 30
0.0
  3
_formato_A4
  1

  0
LINE
  5
55
330
4D
100
AcDbEntity
  8
1
  6
Continuous
 62
     7
100
AcDbLine
 10
137.7856602822582
 20
117.7728704637094
 30
0.0
 11
137.7856602822582
 21
152.7728704637094
 31
0.0
  0
LINE
  5
56
330
4D
100
AcDbEntity
  8
1
  6
Continuous
 62
     7
100
AcDbLine
 10
137.7856602822582
 20
132.7728704637095
 30
0.0
 11
321.7856602822582
 21
132.7728704637095
 31
0.0
  0
LINE
  5
57
330
4D
100
AcDbEntity
  8
1
  6
Continuous
 62
     7
100
AcDbLine
 10
34.78566028225794
 20
301.7728704637095
 30
0.0
 11
34.78566028225794
 21
117.7728704637095
 31
0.0
  0
LINE
  5
58
330
4D
100
AcDbEntity
  8
1
  6
Continuous
 62
     7
100
AcDbLine
 10
162.7856602822583
 20
147.7728704637094
 30
0.0
 11
162.7856602822583
 21
152.7728704637094
 31
0.0
  0
LINE
  5
59
330
4D
100
AcDbEntity
  8
1
  6
Continuous
 62
     7
100
AcDbLine
 10
144.7856602822582
 20
147.7728704637094
 30
0.0
 11
144.7856602822582
 21
152.7728704637094
 31
0.0
  0
LINE
  5
5A
330
4D
100
AcDbEntity
  8
1
  6
Continuous
 62
     7
100
AcDbLine
 10
137.7856602822582
 20
152.7728704637094
 30
0.0
 11
321.7856602822582
 21
152.7728704637095
 31
0.0
  0
LINE
  5
5B
330
4D
100
AcDbEntity
  8
1
  6
Continuous
 62
     7
100
AcDbLine
 10
162.7856602822583
 20
142.7728704637094
 30
0.0
 11
162.7856602822583
 21
147.7728704637094
 31
0.0
  0
LINE
  5
5C
330
4D
100
AcDbEntity
  8
1
  6
Continuous
 62
     7
100
AcDbLine
 10
144.7856602822582
 20
142.7728704637094
 30
0.0
 11
144.7856602822582
 21
147.7728704637094
 31
0.0
  0
LINE
  5
5D
330
4D
100
AcDbEntity
  8
1
  6
Continuous
 62
     7
100
AcDbLine
 10
137.7856602822582
 20
147.7728704637095
 30
0.0
 11
321.7856602822582
 21
147.7728704637094
 31
0.0
  0
LINE
  5
5E
330
4D
100
AcDbEntity
  8
1
  6
Continuous
 62
     7
100
AcDbLine
 10
162.7856602822583
 20
137.7728704637094
 30
0.0
 11
162.7856602822583
 21
142.7728704637094
 31
0.0
  0
LINE
  5
5F
330
4D
100
AcDbEntity
  8
1
  6
Continuous
 62
     7
100
AcDbLine
 10
144.7856602822582
 20
137.7728704637094
 30
0.0
 11
144.7856602822582
 21
142.7728704637094
 31
0.0
  0
LINE
  5
60
330
4D
100
AcDbEntity
  8
1
  6
Continuous
 62
     7
100
AcDbLine
 10
137.7856602822582
 20
142.7728704637094
 30
0.0
 11
321.7856602822582
 21
142.7728704637095
 31
0.0
  0
LINE
  5
61
330
4D
100
AcDbEntity
  8
1
  6
Continuous
 62
     7
100
AcDbLine
 10
162.7856602822583
 20
132.7728704637095
 30
0.0
 11
162.7856602822583
 21
137.7728704637094
 31
0.0
  0
LINE
  5
62
330
4D
100
AcDbEntity
  8
1
  6
Continuous
 62
     7
100
AcDbLine
 10
144.7856602822582
 20
132.7728704637095
 30
0.0
 11
144.7856602822582
 21
137.7728704637094
 31
0.0
  0
LINE
  5
63
330
4D
100
AcDbEntity
  8
1
  6
Continuous
 62
     7
100
AcDbLine
 10
137.7856602822582
 20
137.7728704637094
 30
0.0
 11
321.7856602822582
 21
137.7728704637094
 31
0.0
  0
LINE
  5
64
102
{ACAD_REACTORS
330
A5
102
}
330
4D
100
AcDbEntity
  8
1
  6
Continuous
 62
     7
100
AcDbLine
 10
312.628535122164
 20
123.3308725440898
 30
0.0
 11
311.2952017888306
 21
122.5616417748592
 31
0.0
  0
LINE
  5
65
102
{ACAD_REACTORS
330
A5
102
}
330
4D
100
AcDbEntity
  8
1
  6
Continuous
 62
     7
100
AcDbLine
 10
311.4619609710009
 20
123.4275069963574
 30
0.0
 11
312.2953868198376
 21
123.9083296014557
 31
0.0
  0
LINE
  5
66
102
{ACAD_REACTORS
330
A5
102
}
330
4D
100
AcDbEntity
  8
1
  6
Continuous
 62
     7
100
AcDbLine
 10
311.4619609710007
 20
124.9395371303761
 30
0.0
 11
311.4619609710009
 21
123.4275069963574
 31
0.0
  0
LINE
  5
67
102
{ACAD_REACTORS
330
A5
102
}
330
4D
100
AcDbEntity
  8
1
  6
Continuous
 62
     7
100
AcDbLine
 10
312.4619609710009
 20
124.9395371303761
 30
0.0
 11
311.4619609710007
 21
124.9395371303761
 31
0.0
  0
LINE
  5
68
102
{ACAD_REACTORS
330
A5
102
}
330
4D
100
AcDbEntity
  8
1
  6
Continuous
 62
     7
100
AcDbLine
 10
311.4619609710007
 20
125.6062037970427
 30
0.0
 11
312.4619609710009
 21
125.6062037970427
 31
0.0
  0
LINE
  5
69
102
{ACAD_REACTORS
330
A5
102
}
330
4D
100
AcDbEntity
  8
1
  6
Continuous
 62
     7
100
AcDbLine
 10
311.4619609710009
 20
127.1182339310614
 30
0.0
 11
311.4619609710007
 21
125.6062037970427
 31
0.0
  0
LINE
  5
6A
102
{ACAD_REACTORS
330
A5
102
}
330
4D
100
AcDbEntity
  8
1
  6
Continuous
 62
     7
100
AcDbLine
 10
312.2953868198376
 20
126.6374113259632
 30
0.0
 11
311.4619609710009
 21
127.1182339310614
 31
0.0
  0
LINE
  5
6B
102
{ACAD_REACTORS
330
A5
102
}
330
4D
100
AcDbEntity
  8
1
  6
Continuous
 62
     7
100
AcDbLine
 10
311.2952017888306
 20
127.9840991525598
 30
0.0
 11
312.628535122164
 21
127.2148683833289
 31
0.0
  0
LINE
  5
6C
102
{ACAD_REACTORS
330
A6
102
}
330
4D
100
AcDbEntity
  8
1
  6
Continuous
 62
     7
100
AcDbLine
 10
304.1286276376675
 20
123.6196010727727
 30
0.0
 11
304.1286276376675
 21
126.9261398546461
 31
0.0
  0
LINE
  5
6D
102
{ACAD_REACTORS
330
A6
102
}
330
4D
100
AcDbEntity
  8
1
  6
Continuous
 62
     7
100
AcDbLine
 10
304.7952943043341
 20
123.8121223809728
 30
0.0
 11
304.7952943043341
 21
123.6196010727727
 31
0.0
  0
LINE
  5
6E
102
{ACAD_REACTORS
330
A6
102
}
330
4D
100
AcDbEntity
  8
1
  6
Continuous
 62
     7
100
AcDbLine
 10
304.7952943043341
 20
126.9261398546461
 30
0.0
 11
304.7952943043341
 21
123.8121223809728
 31
0.0
  0
LINE
  5
6F
102
{ACAD_REACTORS
330
A7
102
}
330
4D
100
AcDbEntity
  8
1
  6
Continuous
 62
     7
100
AcDbLine
 10
307.9620534865043
 20
121.2154879287053
 30
0.0
 11
305.7954793353412
 21
122.4654345543764
 31
0.0
  0
LINE
  5
70
102
{ACAD_REACTORS
330
A7
102
}
330
4D
100
AcDbEntity
  8
1
  6
Continuous
 62
     7
100
AcDbLine
 10
306.1286276376675
 20
123.0428916117422
 30
0.0
 11
308.2952017888306
 21
121.7929449860711
 31
0.0
  0
LINE
  5
71
102
{ACAD_REACTORS
330
A7
102
}
330
4D
100
AcDbEntity
  8
1
  6
Continuous
 62
     7
100
AcDbLine
 10
306.1286276376675
 20
127.6953706238769
 30
0.0
 11
306.1286276376675
 21
123.0428916117422
 31
0.0
  0
LINE
  5
72
102
{ACAD_REACTORS
330
A7
102
}
330
4D
100
AcDbEntity
  8
1
  6
Continuous
 62
     7
100
AcDbLine
 10
305.4619609710009
 20
123.0428916117421
 30
0.0
 11
305.4619609710009
 21
127.6953706238769
 31
0.0
  0
LINE
  5
73
102
{ACAD_REACTORS
330
A8
102
}
330
4D
100
AcDbEntity
  8
1
  6
Continuous
 62
     7
100
AcDbLine
 10
309.6341939540441
 20
128.6365708819818
 30
0.0
 11
308.4619609710009
 21
126.6062037970427
 31
0.0
  0
LINE
  5
74
102
{ACAD_REACTORS
330
A8
102
}
330
4D
100
AcDbEntity
  8
1
  6
Continuous
 62
     7
100
AcDbLine
 10
310.1286276376675
 20
122.0811395343113
 30
0.0
 11
310.1286276376675
 21
128.504087775744
 31
0.0
  0
LINE
  5
75
102
{ACAD_REACTORS
330
A8
102
}
330
4D
100
AcDbEntity
  8
1
  6
Continuous
 62
     7
100
AcDbLine
 10
309.4619609710009
 20
125.2728704637095
 30
0.0
 11
309.4619609710009
 21
122.0811395343113
 31
0.0
  0
LINE
  5
76
102
{ACAD_REACTORS
330
A8
102
}
330
4D
100
AcDbEntity
  8
1
  6
Continuous
 62
     7
100
AcDbLine
 10
307.4619609710009
 20
123.6204555363424
 30
0.0
 11
307.4619609710007
 21
125.2728704637094
 31
0.0
  0
LINE
  5
77
102
{ACAD_REACTORS
330
A8
102
}
330
4D
100
AcDbEntity
  8
1
  6
Continuous
 62
     7
100
AcDbLine
 10
306.7952943043341
 20
125.2728704637095
 30
0.0
 11
306.7952943043341
 21
123.6204555363424
 31
0.0
  0
LINE
  5
78
102
{ACAD_REACTORS
330
A8
102
}
330
4D
100
AcDbEntity
  8
1
  6
Continuous
 62
     7
100
AcDbLine
 10
307.2897279879576
 20
128.6365708819818
 30
0.0
 11
308.4619609710009
 21
126.6062037970427
 31
0.0
  0
LINE
  5
79
102
{ACAD_REACTORS
330
A8
102
}
330
4D
100
AcDbEntity
  8
1
  6
Continuous
 62
     7
100
AcDbLine
 10
306.7952943043341
 20
125.2728704637095
 30
0.0
 11
306.7952943043341
 21
128.504087775744
 31
0.0
  0
LINE
  5
7A
330
4D
100
AcDbEntity
  8
1
  6
Continuous
 62
     7
100
AcDbLine
 10
308.4619609710009
 20
120.2728704637095
 30
0.0
 11
300.0455256958592
 21
125.128506199368
 31
0.0
  0
LINE
  5
7B
330
4D
100
AcDbEntity
  8
1
  6
Continuous
 62
     7
100
AcDbLine
 10
316.8783962461422
 20
125.128506199368
 30
0.0
 11
308.4619609710009
 21
120.2728704637095
 31
0.0
  0
LINE
  5
7C
330
4D
100
AcDbEntity
  8
1
  6
Continuous
 62
     7
100
AcDbLine
 10
308.4619609710007
 20
130.2728704637094
 30
0.0
 11
316.8783962461422
 21
125.4172347280508
 31
0.0
  0
LINE
  5
7D
330
4D
100
AcDbEntity
  8
1
  6
Continuous
 62
     7
100
AcDbLine
 10
300.0455256958592
 20
125.4172347280508
 30
0.0
 11
308.4619609710007
 21
130.2728704637094
 31
0.0
  0
LINE
  5
7E
102
{ACAD_REACTORS
330
A8
102
}
330
4D
100
AcDbEntity
  8
1
  6
Continuous
 62
     7
100
AcDbLine
 10
307.4619609710009
 20
127.0049212712783
 30
0.0
 11
307.4619609710007
 21
125.2728704637094
 31
0.0
  0
LINE
  5
7F
102
{ACAD_REACTORS
330
A8
102
}
330
4D
100
AcDbEntity
  8
1
  6
Continuous
 62
     7
100
AcDbLine
 10
308.3176234037034
 20
125.5228704637095
 30
0.0
 11
307.4619609710009
 21
127.0049212712783
 31
0.0
  0
LINE
  5
80
102
{ACAD_REACTORS
330
A8
102
}
330
4D
100
AcDbEntity
  8
1
  6
Continuous
 62
     7
100
AcDbLine
 10
309.4619609710009
 20
127.0049212712783
 30
0.0
 11
308.6062985382982
 21
125.5228704637095
 31
0.0
  0
LINE
  5
81
102
{ACAD_REACTORS
330
A8
102
}
330
4D
100
AcDbEntity
  8
1
  6
Continuous
 62
     7
100
AcDbLine
 10
309.4619609710009
 20
125.2728704637095
 30
0.0
 11
309.4619609710009
 21
127.0049212712783
 31
0.0
  0
LINE
  5
82
102
{ACAD_REACTORS
330
A5
102
}
330
4D
100
AcDbEntity
  8
1
  6
Continuous
 62
     7
100
AcDbLine
 10
310.7952943043343
 20
122.8503703035421
 30
0.0
 11
310.7952943043343
 21
127.6953706238769
 31
0.0
  0
LINE
  5
83
330
4D
100
AcDbEntity
  8
1
  6
Continuous
 62
     7
100
AcDbLine
 10
321.7856602822582
 20
301.7728704637095
 30
0.0
 11
34.78566028225794
 21
301.7728704637095
 31
0.0
  0
LINE
  5
84
330
4D
100
AcDbEntity
  8
1
  6
Continuous
 62
     7
100
AcDbLine
 10
321.7856602822582
 20
117.7728704637095
 30
0.0
 11
321.7856602822582
 21
301.7728704637095
 31
0.0
  0
LINE
  5
85
330
4D
100
AcDbEntity
  8
1
  6
Continuous
 62
     7
100
AcDbLine
 10
34.78566028225794
 20
117.7728704637095
 30
0.0
 11
321.7856602822582
 21
117.7728704637095
 31
0.0
  0
LINE
  5
86
330
4D
100
AcDbEntity
  8
1
  6
Continuous
 62
     7
100
AcDbLine
 10
326.7856602822582
 20
112.7728704637095
 30
0.0
 11
326.7856602822582
 21
322.7728704637096
 31
0.0
  0
LINE
  5
87
330
4D
100
AcDbEntity
  8
1
  6
Continuous
 62
     7
100
AcDbLine
 10
326.7856602822582
 20
322.7728704637096
 30
0.0
 11
29.78566028225805
 21
322.7728704637096
 31
0.0
  0
LINE
  5
88
330
4D
100
AcDbEntity
  8
1
  6
Continuous
 62
     7
100
AcDbLine
 10
29.78566028225805
 20
322.7728704637096
 30
0.0
 11
29.78566028225805
 21
112.7728704637095
 31
0.0
  0
LINE
  5
89
330
4D
100
AcDbEntity
  8
1
  6
Continuous
 62
     7
100
AcDbLine
 10
29.78566028225805
 20
112.7728704637095
 30
0.0
 11
326.7856602822582
 21
112.7728704637095
 31
0.0
  0
LINE
  5
8A
330
4D
100
AcDbEntity
  8
1
  6
Continuous
 62
     7
100
AcDbLine
 10
178.2856602822579
 20
322.7728704637096
 30
0.0
 11
178.2856602822579
 21
307.7728704637096
 31
0.0
  0
LINE
  5
8B
330
4D
100
AcDbEntity
  8
1
  6
Continuous
 62
     7
100
AcDbLine
 10
137.7856602822582
 20
125.2728704637095
 30
0.0
 11
167.7856602822582
 21
125.2728704637095
 31
0.0
  0
LINE
  5
8C
330
4D
100
AcDbEntity
  8
1
  6
Continuous
 62
     7
100
AcDbLine
 10
167.7856602822582
 20
132.7728704637095
 30
0.0
 11
167.7856602822582
 21
117.7728704637095
 31
0.0
  0
LINE
  5
8D
330
4D
100
AcDbEntity
  8
1
  6
Continuous
 62
     7
100
AcDbLine
 10
295.1382616597435
 20
132.7728704637095
 30
0.0
 11
295.1382616597435
 21
117.7728704637095
 31
0.0
  0
LINE
  5
8E
330
4D
100
AcDbEntity
  8
1
  6
Continuous
 62
     7
100
AcDbLine
 10
277.7856602822582
 20
132.7728704637095
 30
0.0
 11
277.7856602822582
 21
117.7728704637095
 31
0.0
  0
ARC
  5
8F
102
{ACAD_REACTORS
330
A5
102
}
330
4D
100
AcDbEntity
  8
1
  6
Continuous
 62
     7
100
AcDbCircle
 10
312.4619609710009
 20
123.6196010727727
 30
0.0
 40
0.3333333333333141
100
AcDbArc
 50
299.9816393688337
 51
119.9816393688578
  0
ARC
  5
90
102
{ACAD_REACTORS
330
A5
102
}
330
4D
100
AcDbEntity
  8
1
  6
Continuous
 62
     7
100
AcDbCircle
 10
312.4619609710009
 20
125.2728704637095
 30
0.0
 40
0.3333333333333997
100
AcDbArc
 50
270.0
 51
90.0
  0
ARC
  5
91
102
{ACAD_REACTORS
330
A5
102
}
330
4D
100
AcDbEntity
  8
1
  6
Continuous
 62
     7
100
AcDbCircle
 10
312.4619609710009
 20
126.9261398546461
 30
0.0
 40
0.3333333333334277
100
AcDbArc
 50
240.0183606311324
 51
60.01836063115896
  0
ARC
  5
92
102
{ACAD_REACTORS
330
A6
102
}
330
4D
100
AcDbEntity
  8
1
  6
Continuous
 62
     7
100
AcDbCircle
 10
304.4619609710009
 20
123.6196010727727
 30
0.0
 40
0.3333333333334281
100
AcDbArc
 50
180.0
 51
0.0
  0
ARC
  5
93
102
{ACAD_REACTORS
330
A6
102
}
330
4D
100
AcDbEntity
  8
1
  6
Continuous
 62
     7
100
AcDbCircle
 10
304.4619609710009
 20
126.9261398546461
 30
0.0
 40
0.3333333333332007
100
AcDbArc
 50
0.0
 51
180.0
  0
ARC
  5
94
102
{ACAD_REACTORS
330
A7
102
}
330
4D
100
AcDbEntity
  8
1
  6
Continuous
 62
     7
100
AcDbCircle
 10
308.1286276376675
 20
121.5042164573882
 30
0.0
 40
0.3333333333333425
100
AcDbArc
 50
240.0183606311578
 51
60.01836063116751
  0
ARC
  5
95
102
{ACAD_REACTORS
330
A7
102
}
330
4D
100
AcDbEntity
  8
1
  6
Continuous
 62
     7
100
AcDbCircle
 10
305.7952943043341
 20
127.6953706238769
 30
0.0
 40
0.3333333333333712
100
AcDbArc
 50
0.0
 51
180.0
  0
ARC
  5
96
102
{ACAD_REACTORS
330
A8
102
}
330
4D
100
AcDbEntity
  8
1
  6
Continuous
 62
     7
100
AcDbCircle
 10
309.8636614251922
 20
128.504087775744
 30
0.0
 40
0.2649662124752581
100
AcDbArc
 50
0.0
 51
149.9999999999658
  0
ARC
  5
97
102
{ACAD_REACTORS
330
A8
102
}
330
4D
100
AcDbEntity
  8
1
  6
Continuous
 62
     7
100
AcDbCircle
 10
309.7952943043343
 20
122.0811395343113
 30
0.0
 40
0.3333333333333712
100
AcDbArc
 50
180.0
 51
0.0
  0
ARC
  5
98
102
{ACAD_REACTORS
330
A8
102
}
330
4D
100
AcDbEntity
  8
1
  6
Continuous
 62
     7
100
AcDbCircle
 10
307.1286276376675
 20
123.6204555363424
 30
0.0
 40
0.3333333333333712
100
AcDbArc
 50
180.0
 51
0.0
  0
ARC
  5
99
102
{ACAD_REACTORS
330
A8
102
}
330
4D
100
AcDbEntity
  8
1
  6
Continuous
 62
     7
100
AcDbCircle
 10
307.0602605168094
 20
128.504087775744
 30
0.0
 40
0.2649662124753746
100
AcDbArc
 50
30.00000000002803
 51
180.0
  0
ARC
  5
9A
102
{ACAD_REACTORS
330
A5
102
}
330
4D
100
AcDbEntity
  8
1
  6
Continuous
 62
     7
100
AcDbCircle
 10
311.1286276376675
 20
122.8503703035421
 30
0.0
 40
0.3333333333332007
100
AcDbArc
 50
180.0
 51
299.9816393688325
  0
ARC
  5
9B
102
{ACAD_REACTORS
330
A5
102
}
330
4D
100
AcDbEntity
  8
1
  6
Continuous
 62
     7
100
AcDbCircle
 10
311.1286276376675
 20
127.6953706238769
 30
0.0
 40
0.3333333333333264
100
AcDbArc
 50
60.01836063116751
 51
180.0
  0
ARC
  5
9C
330
4D
100
AcDbEntity
  8
1
  6
Continuous
 62
     7
100
AcDbCircle
 10
316.7951091705608
 20
125.2728704637095
 30
0.0
 40
0.1666666666666088
100
AcDbArc
 50
299.9816393687756
 51
60.01836063119266
  0
ARC
  5
9D
330
4D
100
AcDbEntity
  8
1
  6
Continuous
 62
     7
100
AcDbCircle
 10
300.128812771441
 20
125.2728704637095
 30
0.0
 40
0.1666666666666476
100
AcDbArc
 50
119.9816393689258
 51
240.0183606311059
  0
ARC
  5
9E
102
{ACAD_REACTORS
330
A7
102
}
330
4D
100
AcDbEntity
  8
1
  6
Continuous
 62
     7
100
AcDbCircle
 10
306.1286276376675
 20
123.0428916117422
 30
0.0
 40
0.6666666666665719
100
AcDbArc
 50
180.0000000000086
 51
240.0183606311627
  0
ARC
  5
9F
102
{ACAD_REACTORS
330
A8
102
}
330
4D
100
AcDbEntity
  8
1
  6
Continuous
 62
     7
100
AcDbCircle
 10
308.4619609710009
 20
125.6062037970427
 30
0.0
 40
0.1666666666666797
100
AcDbArc
 50
209.9999999999447
 51
330.0000000000162
  0
MTEXT
  5
A1
330
4D
100
AcDbEntity
  8
1
 62
     7
100
AcDbMText
 10
286.4619609710009
 20
129.0335098844655
 30
0.0
 40
3.0
 41
0.0
 71
     5
 72
     1
  1
Scale
  7
CONVERTER_11
 73
     1
 44
1.32052821128451
  0
MTEXT
  5
A2
330
4D
100
AcDbEntity
  8
1
 62
     7
100
AcDbMText
 10
139.7856602822582
 20
121.5228704637095
 30
0.0
 40
3.0
 41
0.0
 71
     4
 72
     1
  1
Sign.
  7
CONVERTER_11
 73
     1
 44
1.32052821128451
  0
MTEXT
  5
A3
330
4D
100
AcDbEntity
  8
1
 62
     7
100
AcDbMText
 10
139.7856602822582
 20
129.0335098844655
 30
0.0
 40
3.0
 41
0.0
 71
     4
 72
     1
  1
Date
  7
CONVERTER_11
 73
     1
 44
1.32052821128451
  0
MTEXT
  5
A4
330
4D
100
AcDbEntity
  8
1
 62
     7
100
AcDbMText
 10
181.2856602822579
 20
306.7728704637096
 30
0.0
 40
4.0
 41
0.0
 71
     5
 72
     1
  1
Diritti riservati      All rights reserved
  7
CONVERTER_11
 73
     1
 44
1.32052821128451
  0
HATCH
  5
A5
330
4D
100
AcDbEntity
  8
1
  6
Continuous
 62
     7
100
AcDbHatch
 10
0.0
 20
0.0
 30
0.0
210
0.0
220
0.0
230
1.0
  2
SOLID
 70
     1
 71
     1
 91
        1
 92
        1
 93
       14
 72
     2
 10
311.1286276376675
 20
127.6953706238769
 40
0.3333333333333264
 50
60.01836063116751
 51
180.0
 73
     1
 72
     1
 10
310.7952943043343
 20
127.6953706238769
 11
310.7952943043343
 21
122.8503703035421
 72
     2
 10
311.1286276376675
 20
122.8503703035421
 40
0.3333333333332007
 50
180.0
 51
299.9816393688325
 73
     1
 72
     1
 10
311.2952017888306
 20
122.5616417748592
 11
312.628535122164
 21
123.3308725440898
 72
     2
 10
312.4619609710009
 20
123.6196010727727
 40
0.3333333333333141
 50
299.9816393688337
 51
479.9816393688578
 73
     1
 72
     1
 10
312.2953868198376
 20
123.9083296014557
 11
311.4619609710009
 21
123.4275069963574
 72
     1
 10
311.4619609710009
 20
123.4275069963574
 11
311.4619609710007
 21
124.9395371303761
 72
     1
 10
311.4619609710007
 20
124.9395371303761
 11
312.4619609710009
 21
124.9395371303761
 72
     2
 10
312.4619609710009
 20
125.2728704637095
 40
0.3333333333333997
 50
270.0
 51
450.0
 73
     1
 72
     1
 10
312.4619609710009
 20
125.6062037970427
 11
311.4619609710007
 21
125.6062037970427
 72
     1
 10
311.4619609710007
 20
125.6062037970427
 11
311.4619609710009
 21
127.1182339310614
 72
     1
 10
311.4619609710009
 20
127.1182339310614
 11
312.2953868198376
 21
126.6374113259632
 72
     2
 10
312.4619609710009
 20
126.9261398546461
 40
0.3333333333334277
 50
240.0183606311324
 51
420.0183606311589
 73
     1
 72
     1
 10
312.628535122164
 20
127.2148683833289
 11
311.2952017888306
 21
127.9840991525598
 97
       14
330
91
330
6A
330
69
330
68
330
90
330
67
330
66
330
65
330
8F
330
64
330
9A
330
82
330
9B
330
6B
 75
     0
 76
     1
 98
        1
 10
0.0
 20
0.0
  0
HATCH
  5
A6
330
4D
100
AcDbEntity
  8
1
  6
Continuous
 62
     7
100
AcDbHatch
 10
0.0
 20
0.0
 30
0.0
210
0.0
220
0.0
230
1.0
  2
SOLID
 70
     1
 71
     1
 91
        1
 92
        1
 93
        5
 72
     2
 10
304.4619609710009
 20
126.9261398546461
 40
0.3333333333332007
 50
0.0
 51
180.0
 73
     1
 72
     1
 10
304.1286276376675
 20
126.9261398546461
 11
304.1286276376675
 21
123.6196010727727
 72
     2
 10
304.4619609710009
 20
123.6196010727727
 40
0.3333333333334281
 50
180.0
 51
360.0
 73
     1
 72
     1
 10
304.7952943043341
 20
123.6196010727727
 11
304.7952943043341
 21
123.8121223809728
 72
     1
 10
304.7952943043341
 20
123.8121223809728
 11
304.7952943043341
 21
126.9261398546461
 97
        5
330
93
330
6C
330
92
330
6D
330
6E
 75
     0
 76
     1
 98
        1
 10
0.0
 20
0.0
  0
HATCH
  5
A7
330
4D
100
AcDbEntity
  8
1
  6
Continuous
 62
     7
100
AcDbHatch
 10
0.0
 20
0.0
 30
0.0
210
0.0
220
0.0
230
1.0
  2
SOLID
 70
     1
 71
     1
 91
        1
 92
        1
 93
        7
 72
     2
 10
305.7952943043341
 20
127.6953706238769
 40
0.3333333333333712
 50
0.0
 51
180.0
 73
     1
 72
     1
 10
305.4619609710009
 20
127.6953706238769
 11
305.4619609710009
 21
123.0428916117421
 72
     2
 10
306.1286276376675
 20
123.0428916117422
 40
0.6666666666665719
 50
180.0000000000086
 51
240.0183606311627
 73
     1
 72
     1
 10
305.7954793353412
 20
122.4654345543764
 11
307.9620534865043
 21
121.2154879287053
 72
     2
 10
308.1286276376675
 20
121.5042164573882
 40
0.3333333333333425
 50
240.0183606311578
 51
420.0183606311675
 73
     1
 72
     1
 10
308.2952017888306
 20
121.7929449860711
 11
306.1286276376675
 21
123.0428916117422
 72
     1
 10
306.1286276376675
 20
123.0428916117422
 11
306.1286276376675
 21
127.6953706238769
 97
        7
330
95
330
72
330
9E
330
6F
330
94
330
70
330
71
 75
     0
 76
     1
 98
        1
 10
0.0
 20
0.0
  0
HATCH
  5
A8
330
4D
100
AcDbEntity
  8
1
  6
Continuous
 62
     7
100
AcDbHatch
 10
0.0
 20
0.0
 30
0.0
210
0.0
220
0.0
230
1.0
  2
SOLID
 70
     1
 71
     1
 91
        1
 92
        1
 93
       16
 72
     2
 10
309.8636614251922
 20
128.504087775744
 40
0.2649662124752581
 50
210.0000000000342
 51
360.0
 73
     0
 72
     1
 10
310.1286276376675
 20
128.504087775744
 11
310.1286276376675
 21
122.0811395343113
 72
     2
 10
309.7952943043343
 20
122.0811395343113
 40
0.3333333333333712
 50
0.0
 51
180.0
 73
     0
 72
     1
 10
309.4619609710009
 20
122.0811395343113
 11
309.4619609710009
 21
125.2728704637095
 72
     1
 10
309.4619609710009
 20
125.2728704637095
 11
309.4619609710009
 21
127.0049212712783
 72
     1
 10
309.4619609710009
 20
127.0049212712783
 11
308.6062985382982
 21
125.5228704637095
 72
     2
 10
308.4619609710009
 20
125.6062037970427
 40
0.1666666666666797
 50
29.99999999998384
 51
150.0000000000553
 73
     0
 72
     1
 10
308.3176234037034
 20
125.5228704637095
 11
307.4619609710009
 21
127.0049212712783
 72
     1
 10
307.4619609710009
 20
127.0049212712783
 11
307.4619609710007
 21
125.2728704637094
 72
     1
 10
307.4619609710007
 20
125.2728704637094
 11
307.4619609710009
 21
123.6204555363424
 72
     2
 10
307.1286276376675
 20
123.6204555363424
 40
0.3333333333333712
 50
0.0
 51
180.0
 73
     0
 72
     1
 10
306.7952943043341
 20
123.6204555363424
 11
306.7952943043341
 21
125.2728704637095
 72
     1
 10
306.7952943043341
 20
125.2728704637095
 11
306.7952943043341
 21
128.504087775744
 72
     2
 10
307.0602605168094
 20
128.504087775744
 40
0.2649662124753746
 50
180.0
 51
329.9999999999719
 73
     0
 72
     1
 10
307.2897279879576
 20
128.6365708819818
 11
308.4619609710009
 21
126.6062037970427
 72
     1
 10
308.4619609710009
 20
126.6062037970427
 11
309.6341939540441
 21
128.6365708819818
 97
       16
330
78
330
99
330
79
330
77
330
98
330
76
330
7E
330
7F
330
9F
330
80
330
81
330
75
330
97
330
74
330
96
330
73
 75
     0
 76
     1
 98
        1
 10
0.0
 20
0.0
  0
ENDBLK
  5
4F
330
4D
100
AcDbEntity
  8
0
100
AcDbBlockEnd
  0
BLOCK
  5
52
330
50
100
AcDbEntity
  8
0
100
AcDbBlockBegin
  2
A4_oriz
 70
     0
 10
594.0000000000002
 20
-0.00000000000003
 30
0.0
  3
A4_oriz
  1

  0
INSERT
  5
51
330
50
100
AcDbEntity
  8
1
100
AcDbBlockReference
  2
_formato_A4
 10
594.0000000000003
 20
0.0
 30
0.0
 41
2.0
 42
2.0
 43
2.0
  0
ENDBLK
  5
53
330
50
100
AcDbEntity
  8
0
100
AcDbBlockEnd
  0
BLOCK
  5
390
330
388
100
AcDbEntity
  8
0
100
AcDbBlockBegin
  2
*D3
 70
     1
 10
0.0
 20
0.0
 30
0.0
  3
*D3
  1

  0
LINE
  5
389
330
388
100
AcDbEntity
  8
1
  6
Continuous
 62
     2
100
AcDbLine
 10
158.5509203319262
 20
251.3588047757851
 30
0.0
 11
158.5509203319262
 21
168.3588047757851
 31
0.0
  0
LINE
  5
38A
330
388
100
AcDbEntity
  8
1
  6
Continuous
 62
     2
100
AcDbLine
 10
134.9550978381452
 20
251.3588047757851
 30
0.0
 11
160.5509203319262
 21
251.3588047757851
 31
0.0
  0
LINE
  5
38B
330
388
100
AcDbEntity
  8
1
  6
Continuous
 62
     2
100
AcDbLine
 10
134.9550978381452
 20
168.3588047757851
 30
0.0
 11
160.5509203319262
 21
168.3588047757851
 31
0.0
  0
SOLID
  5
38C
330
388
100
AcDbEntity
  8
1
 62
     2
100
AcDbTrace
 10
159.3408353174506
 20
245.3588047757851
 30
0.0
 11
157.7610053464018
 21
245.3588047757851
 31
0.0
 12
158.5509203319262
 22
251.3588047757851
 32
0.0
 13
158.5509203319262
 23
251.3588047757851
 33
0.0
  0
SOLID
  5
38D
330
388
100
AcDbEntity
  8
1
 62
     2
100
AcDbTrace
 10
157.7610053464018
 20
174.3588047757851
 30
0.0
 11
159.3408353174506
 21
174.3588047757851
 31
0.0
 12
158.5509203319262
 22
168.3588047757851
 32
0.0
 13
158.5509203319262
 23
168.3588047757851
 33
0.0
  0
MTEXT
  5
38F
330
388
100
AcDbEntity
  8
1
 62
     4
100
AcDbMText
 10
154.5509203319262
 20
205.0588047757851
 30
0.0
 40
6.0
 41
0.0
 71
     7
 72
     1
  1
83
  7
CONVERTER_14
 11
0.0
 21
1.0
 31
0.0
 73
     1
 44
0.60024009603842
  0
ENDBLK
  5
391
330
388
100
AcDbEntity
  8
0
100
AcDbBlockEnd
  0
BLOCK
  5
39B
330
394
100
AcDbEntity
  8
0
100
AcDbBlockBegin
  2
*D4
 70
     1
 10
0.0
 20
0.0
 30
0.0
  3
*D4
  1

  0
LINE
  5
395
330
394
100
AcDbEntity
  8
1
  6
Continuous
 62
     2
100
AcDbLine
 10
75.03084752382892
 20
242.3588047757851
 30
0.0
 11
75.03084752382892
 21
177.3588047757851
 31
0.0
  0
LINE
  5
396
330
394
100
AcDbEntity
  8
1
  6
Continuous
 62
     2
100
AcDbLine
 10
92.20509783814555
 20
242.3588047757851
 30
0.0
 11
73.03084752382892
 21
242.3588047757851
 31
0.0
  0
LINE
  5
397
330
394
100
AcDbEntity
  8
1
  6
Continuous
 62
     2
100
AcDbLine
 10
92.20509783814553
 20
177.3588047757851
 30
0.0
 11
73.03084752382892
 21
177.3588047757851
 31
0.0
  0
SOLID
  5
398
330
394
100
AcDbEntity
  8
1
 62
     2
100
AcDbTrace
 10
75.8207625093533
 20
236.3588047757851
 30
0.0
 11
74.24093253830455
 21
236.3588047757851
 31
0.0
 12
75.03084752382892
 22
242.3588047757851
 32
0.0
 13
75.03084752382892
 23
242.3588047757851
 33
0.0
  0
SOLID
  5
399
330
394
100
AcDbEntity
  8
1
 62
     2
100
AcDbTrace
 10
74.24093253830455
 20
183.3588047757851
 30
0.0
 11
75.8207625093533
 21
183.3588047757851
 31
0.0
 12
75.03084752382892
 22
177.3588047757851
 32
0.0
 13
75.03084752382892
 23
177.3588047757851
 33
0.0
  0
MTEXT
  5
39A
330
394
100
AcDbEntity
  8
1
 62
     4
100
AcDbMText
 10
71.03084752382892
 20
205.3588047757851
 30
0.0
 40
6.0
 41
0.0
 71
     7
 72
     1
  1
65
  7
CONVERTER_14
 11
0.0
 21
1.0
 31
0.0
 73
     1
 44
0.60024009603842
  0
ENDBLK
  5
39C
330
394
100
AcDbEntity
  8
0
100
AcDbBlockEnd
  0
BLOCK
  5
3A6
330
39F
100
AcDbEntity
  8
0
100
AcDbBlockBegin
  2
*D5
 70
     1
 10
0.0
 20
0.0
 30
0.0
  3
*D5
  1

  0
LINE
  5
3A0
330
39F
100
AcDbEntity
  8
1
  6
Continuous
 62
     2
100
AcDbLine
 10
94.70509783814549
 20
267.7492290460612
 30
0.0
 11
126.7050978381452
 21
267.7492290460612
 31
0.0
  0
LINE
  5
3A1
330
39F
100
AcDbEntity
  8
1
  6
Continuous
 62
     2
100
AcDbLine
 10
94.70509783814549
 20
259.6088047757851
 30
0.0
 11
94.70509783814549
 21
269.7492290460612
 31
0.0
  0
LINE
  5
3A2
330
39F
100
AcDbEntity
  8
1
  6
Continuous
 62
     2
100
AcDbLine
 10
126.7050978381452
 20
259.6088047757851
 30
0.0
 11
126.7050978381452
 21
269.7492290460612
 31
0.0
  0
SOLID
  5
3A3
330
39F
100
AcDbEntity
  8
1
 62
     2
100
AcDbTrace
 10
100.7050978381455
 20
268.5391440315856
 30
0.0
 11
100.7050978381455
 21
266.9593140605368
 31
0.0
 12
94.70509783814549
 22
267.7492290460612
 32
0.0
 13
94.70509783814549
 23
267.7492290460612
 33
0.0
  0
SOLID
  5
3A4
330
39F
100
AcDbEntity
  8
1
 62
     2
100
AcDbTrace
 10
120.7050978381452
 20
266.9593140605368
 30
0.0
 11
120.7050978381452
 21
268.5391440315856
 31
0.0
 12
126.7050978381452
 22
267.7492290460612
 32
0.0
 13
126.7050978381452
 23
267.7492290460612
 33
0.0
  0
MTEXT
  5
3A5
330
39F
100
AcDbEntity
  8
1
 62
     4
100
AcDbMText
 10
106.2050978381454
 20
271.7492290460612
 30
0.0
 40
6.0
 41
0.0
 71
     7
 72
     1
  1
32
  7
CONVERTER_14
 11
0.9999999999970619
 21
2.424068405545306E-6
 31
0.0
 73
     1
 44
0.60024009603842
  0
ENDBLK
  5
3A7
330
39F
100
AcDbEntity
  8
0
100
AcDbBlockEnd
  0
BLOCK
  5
3B1
330
3AA
100
AcDbEntity
  8
0
100
AcDbBlockBegin
  2
*D6
 70
     1
 10
0.0
 20
0.0
 30
0.0
  3
*D6
  1

  0
LINE
  5
3AB
330
3AA
100
AcDbEntity
  8
1
  6
Continuous
 62
     2
100
AcDbLine
 10
93.20509783814553
 20
143.9973493997451
 30
0.0
 11
128.2050978381452
 21
143.9973493997451
 31
0.0
  0
LINE
  5
3AC
330
3AA
100
AcDbEntity
  8
1
  6
Continuous
 62
     2
100
AcDbLine
 10
93.20509783814553
 20
176.3588047757851
 30
0.0
 11
93.20509783814553
 21
141.9973493997451
 31
0.0
  0
LINE
  5
3AD
330
3AA
100
AcDbEntity
  8
1
  6
Continuous
 62
     2
100
AcDbLine
 10
128.2050978381452
 20
176.3588047757851
 30
0.0
 11
128.2050978381452
 21
141.9973493997451
 31
0.0
  0
SOLID
  5
3AE
330
3AA
100
AcDbEntity
  8
1
 62
     2
100
AcDbTrace
 10
99.20509783814553
 20
144.7872643852695
 30
0.0
 11
99.20509783814553
 21
143.2074344142207
 31
0.0
 12
93.20509783814553
 22
143.9973493997451
 32
0.0
 13
93.20509783814553
 23
143.9973493997451
 33
0.0
  0
SOLID
  5
3AF
330
3AA
100
AcDbEntity
  8
1
 62
     2
100
AcDbTrace
 10
122.2050978381452
 20
143.2074344142207
 30
0.0
 11
122.2050978381452
 21
144.7872643852695
 31
0.0
 12
128.2050978381452
 22
143.9973493997451
 32
0.0
 13
128.2050978381452
 23
143.9973493997451
 33
0.0
  0
MTEXT
  5
3B0
330
3AA
100
AcDbEntity
  8
1
 62
     4
100
AcDbMText
 10
106.2050978381454
 20
147.9973493997451
 30
0.0
 40
6.0
 41
0.0
 71
     7
 72
     1
  1
35
  7
CONVERTER_14
 11
0.9999999999970619
 21
2.424068405545306E-6
 31
0.0
 73
     1
 44
0.60024009603842
  0
ENDBLK
  5
3B2
330
3AA
100
AcDbEntity
  8
0
100
AcDbBlockEnd
  0
BLOCK
  5
3BC
330
3B5
100
AcDbEntity
  8
0
100
AcDbBlockBegin
  2
*D7
 70
     1
 10
0.0
 20
0.0
 30
0.0
  3
*D7
  1

  0
LINE
  5
3B6
330
3B5
100
AcDbEntity
  8
1
  6
Continuous
 62
     2
100
AcDbLine
 10
261.2219568425643
 20
176.7121648967205
 30
0.0
 11
356.7219568425643
 21
176.7121648967205
 31
0.0
  0
LINE
  5
3B7
330
3B5
100
AcDbEntity
  8
1
  6
Continuous
 62
     2
100
AcDbLine
 10
261.2219568425643
 20
199.8587425593901
 30
0.0
 11
261.2219568425643
 21
174.7121648967205
 31
0.0
  0
LINE
  5
3B8
330
3B5
100
AcDbEntity
  8
1
  6
Continuous
 62
     2
100
AcDbLine
 10
356.7219568425643
 20
199.8587425593901
 30
0.0
 11
356.7219568425643
 21
174.7121648967205
 31
0.0
  0
SOLID
  5
3B9
330
3B5
100
AcDbEntity
  8
1
 62
     2
100
AcDbTrace
 10
267.2219568425643
 20
177.5020798822449
 30
0.0
 11
267.2219568425643
 21
175.9222499111961
 31
0.0
 12
261.2219568425643
 22
176.7121648967205
 32
0.0
 13
261.2219568425643
 23
176.7121648967205
 33
0.0
  0
SOLID
  5
3BA
330
3B5
100
AcDbEntity
  8
1
 62
     2
100
AcDbTrace
 10
350.7219568425643
 20
175.9222499111961
 30
0.0
 11
350.7219568425643
 21
177.5020798822449
 31
0.0
 12
356.7219568425643
 22
176.7121648967205
 32
0.0
 13
356.7219568425643
 23
176.7121648967205
 33
0.0
  0
MTEXT
  5
3BB
330
3B5
100
AcDbEntity
  8
1
 62
     4
100
AcDbMText
 10
300.7219568425643
 20
181.3121648967205
 30
0.0
 40
6.0
 41
0.0
 71
     7
 72
     1
  1
95,5
  7
CONVERTER_14
 11
0.9999999999970619
 21
2.424068405545306E-6
 31
0.0
 73
     1
 44
0.60024009603842
  0
ENDBLK
  5
3BD
330
3B5
100
AcDbEntity
  8
0
100
AcDbBlockEnd
  0
BLOCK
  5
3C7
330
3C0
100
AcDbEntity
  8
0
100
AcDbBlockBegin
  2
*D8
 70
     1
 10
0.0
 20
0.0
 30
0.0
  3
*D8
  1

  0
LINE
  5
3C1
330
3C0
100
AcDbEntity
  8
1
  6
Continuous
 62
     2
100
AcDbLine
 10
448.3554649775043
 20
176.7121648967205
 30
0.0
 11
493.8554649775043
 21
176.7121648967205
 31
0.0
  0
LINE
  5
3C2
330
3C0
100
AcDbEntity
  8
1
  6
Continuous
 62
     2
100
AcDbLine
 10
448.3554649775043
 20
199.8587425593901
 30
0.0
 11
448.3554649775043
 21
174.7121648967205
 31
0.0
  0
LINE
  5
3C3
330
3C0
100
AcDbEntity
  8
1
  6
Continuous
 62
     2
100
AcDbLine
 10
493.8554649775043
 20
199.8587425593901
 30
0.0
 11
493.8554649775043
 21
174.7121648967205
 31
0.0
  0
SOLID
  5
3C4
330
3C0
100
AcDbEntity
  8
1
 62
     2
100
AcDbTrace
 10
454.3554649775043
 20
177.5020798822449
 30
0.0
 11
454.3554649775043
 21
175.9222499111961
 31
0.0
 12
448.3554649775043
 22
176.7121648967205
 32
0.0
 13
448.3554649775043
 23
176.7121648967205
 33
0.0
  0
SOLID
  5
3C5
330
3C0
100
AcDbEntity
  8
1
 62
     2
100
AcDbTrace
 10
487.8554649775043
 20
175.9222499111961
 30
0.0
 11
487.8554649775043
 21
177.5020798822449
 31
0.0
 12
493.8554649775043
 22
176.7121648967205
 32
0.0
 13
493.8554649775043
 23
176.7121648967205
 33
0.0
  0
MTEXT
  5
3C6
330
3C0
100
AcDbEntity
  8
1
 62
     4
100
AcDbMText
 10
462.8554649775043
 20
181.3121648967205
 30
0.0
 40
6.0
 41
0.0
 71
     7
 72
     1
  1
45,5
  7
CONVERTER_14
 11
0.9999999999970619
 21
2.424068405545306E-6
 31
0.0
 73
     1
 44
0.60024009603842
  0
ENDBLK
  5
3C8
330
3C0
100
AcDbEntity
  8
0
100
AcDbBlockEnd
  0
BLOCK
  5
3D4
330
3CB
100
AcDbEntity
  8
0
100
AcDbBlockBegin
  2
*D9
 70
     1
 10
0.0
 20
0.0
 30
0.0
  3
*D9
  1

  0
LINE
  5
3CC
330
3CB
100
AcDbEntity
  8
1
  6
Continuous
 62
     2
100
AcDbLine
 10
435.1831241000559
 20
218.8587425593901
 30
0.0
 11
435.1831241000559
 21
206.8587425593901
 31
0.0
  0
LINE
  5
3CD
330
3CB
100
AcDbEntity
  8
1
  6
Continuous
 62
     2
100
AcDbLine
 10
435.1831241000559
 20
206.8587425593901
 30
0.0
 11
435.1831241000559
 21
200.8587425593901
 31
0.0
  0
LINE
  5
3CE
330
3CB
100
AcDbEntity
  8
1
  6
Continuous
 62
     2
100
AcDbLine
 10
435.1831241000559
 20
200.8587425593901
 30
0.0
 11
435.1831241000559
 21
182.9379036759765
 31
0.0
  0
LINE
  5
3CF
330
3CB
100
AcDbEntity
  8
1
  6
Continuous
 62
     2
100
AcDbLine
 10
448.7913499728183
 20
206.8587425593901
 30
0.0
 11
433.1831241000559
 21
206.8587425593901
 31
0.0
  0
LINE
  5
3D0
330
3CB
100
AcDbEntity
  8
1
  6
Continuous
 62
     2
100
AcDbLine
 10
447.3554649775043
 20
200.8587425593901
 30
0.0
 11
433.1831241000559
 21
200.8587425593901
 31
0.0
  0
SOLID
  5
3D1
330
3CB
100
AcDbEntity
  8
1
 62
     2
100
AcDbTrace
 10
434.3932091145315
 20
212.8587425593901
 30
0.0
 11
435.9730390855803
 21
212.8587425593901
 31
0.0
 12
435.1831241000559
 22
206.8587425593901
 32
0.0
 13
435.1831241000559
 23
206.8587425593901
 33
0.0
  0
SOLID
  5
3D2
330
3CB
100
AcDbEntity
  8
1
 62
     2
100
AcDbTrace
 10
435.9730390855803
 20
194.8587425593901
 30
0.0
 11
434.3932091145315
 21
194.8587425593901
 31
0.0
 12
435.1831241000559
 22
200.8587425593901
 32
0.0
 13
435.1831241000559
 23
200.8587425593901
 33
0.0
  0
MTEXT
  5
3D3
330
3CB
100
AcDbEntity
  8
1
 62
     4
100
AcDbMText
 10
431.1831241000559
 20
182.9379036759765
 30
0.0
 40
6.0
 41
0.0
 71
     7
 72
     1
  1
6
  7
CONVERTER_14
 11
0.0
 21
1.0
 31
0.0
 73
     1
 44
0.60024009603842
  0
ENDBLK
  5
3D5
330
3CB
100
AcDbEntity
  8
0
100
AcDbBlockEnd
  0
BLOCK
  5
3DF
330
3D8
100
AcDbEntity
  8
0
100
AcDbBlockBegin
  2
*D10
 70
     1
 10
0.0
 20
0.0
 30
0.0
  3
*D10
  1

  0
LINE
  5
3D9
330
3D8
100
AcDbEntity
  8
1
  6
Continuous
 62
     2
100
AcDbLine
 10
421.1335652035659
 20
229.5587425593901
 30
0.0
 11
421.1335652035659
 21
200.8587425593901
 31
0.0
  0
LINE
  5
3DA
330
3D8
100
AcDbEntity
  8
1
  6
Continuous
 62
     2
100
AcDbLine
 10
455.6054649775043
 20
229.5587425593901
 30
0.0
 11
419.1335652035659
 21
229.5587425593901
 31
0.0
  0
LINE
  5
3DB
330
3D8
100
AcDbEntity
  8
1
  6
Continuous
 62
     2
100
AcDbLine
 10
447.3554649775043
 20
200.8587425593901
 30
0.0
 11
419.1335652035659
 21
200.8587425593901
 31
0.0
  0
SOLID
  5
3DC
330
3D8
100
AcDbEntity
  8
1
 62
     2
100
AcDbTrace
 10
421.9234801890903
 20
223.5587425593901
 30
0.0
 11
420.3436502180415
 21
223.5587425593901
 31
0.0
 12
421.1335652035659
 22
229.5587425593901
 32
0.0
 13
421.1335652035659
 23
229.5587425593901
 33
0.0
  0
SOLID
  5
3DD
330
3D8
100
AcDbEntity
  8
1
 62
     2
100
AcDbTrace
 10
420.3436502180415
 20
206.8587425593901
 30
0.0
 11
421.9234801890903
 21
206.8587425593901
 31
0.0
 12
421.1335652035659
 22
200.8587425593901
 32
0.0
 13
421.1335652035659
 23
200.8587425593901
 33
0.0
  0
MTEXT
  5
3DE
330
3D8
100
AcDbEntity
  8
1
 62
     4
100
AcDbMText
 10
417.1335652035659
 20
210.7087425593901
 30
0.0
 40
6.0
 41
0.0
 71
     7
 72
     1
  1
29
  7
CONVERTER_14
 11
0.0
 21
1.0
 31
0.0
 73
     1
 44
0.60024009603842
  0
ENDBLK
  5
3E0
330
3D8
100
AcDbEntity
  8
0
100
AcDbBlockEnd
  0
BLOCK
  5
3EA
330
3E3
100
AcDbEntity
  8
0
100
AcDbBlockBegin
  2
*D11
 70
     1
 10
0.0
 20
0.0
 30
0.0
  3
*D11
  1

  0
LINE
  5
3E4
330
3E3
100
AcDbEntity
  8
1
  6
Continuous
 62
     2
100
AcDbLine
 10
448.3554649775043
 20
152.573625907248
 30
0.0
 11
517.4804071962681
 21
152.573625907248
 31
0.0
  0
LINE
  5
3E5
330
3E3
100
AcDbEntity
  8
1
  6
Continuous
 62
     2
100
AcDbLine
 10
448.3554649775043
 20
199.8587425593901
 30
0.0
 11
448.3554649775043
 21
150.573625907248
 31
0.0
  0
LINE
  5
3E6
330
3E3
100
AcDbEntity
  8
1
  6
Continuous
 62
     2
100
AcDbLine
 10
517.4804071962681
 20
208.85874255939
 30
0.0
 11
517.4804071962681
 21
150.573625907248
 31
0.0
  0
SOLID
  5
3E7
330
3E3
100
AcDbEntity
  8
1
 62
     2
100
AcDbTrace
 10
454.3554649775043
 20
153.3635408927724
 30
0.0
 11
454.3554649775043
 21
151.7837109217236
 31
0.0
 12
448.3554649775043
 22
152.573625907248
 32
0.0
 13
448.3554649775043
 23
152.573625907248
 33
0.0
  0
SOLID
  5
3E8
330
3E3
100
AcDbEntity
  8
1
 62
     2
100
AcDbTrace
 10
511.4804071962681
 20
151.7837109217236
 30
0.0
 11
511.4804071962681
 21
153.3635408927724
 31
0.0
 12
517.4804071962681
 22
152.573625907248
 32
0.0
 13
517.4804071962681
 23
152.573625907248
 33
0.0
  0
MTEXT
  5
3E9
330
3E3
100
AcDbEntity
  8
1
 62
     4
100
AcDbMText
 10
478.4179360868862
 20
156.573625907248
 30
0.0
 40
6.0
 41
0.0
 71
     7
 72
     1
  1
70
  7
CONVERTER_14
 11
0.9999999999970619
 21
2.424068405545306E-6
 31
0.0
 73
     1
 44
0.60024009603842
  0
ENDBLK
  5
3EB
330
3E3
100
AcDbEntity
  8
0
100
AcDbBlockEnd
  0
BLOCK
  5
3F3
330
3EE
100
AcDbEntity
  8
0
100
AcDbBlockBegin
  2
*D12
 70
     1
 10
0.0
 20
0.0
 30
0.0
  3
*D12
  1

  0
LINE
  5
3EF
330
3EE
100
AcDbEntity
  8
1
  6
Continuous
 62
     2
100
AcDbLine
 10
116.7751644833788
 20
246.071184936018
 30
0.0
 11
155.6382560798874
 21
266.7655085350528
 31
0.0
  0
SOLID
  5
3F0
330
3EE
100
AcDbEntity
  8
1
 62
     2
100
AcDbTrace
 10
133.6157805072682
 20
255.9336196060312
 30
0.0
 11
134.3583174226794
 21
254.539165710531
 31
0.0
 12
128.6910845090985
 22
252.4163287437386
 32
0.0
 13
128.6910845090985
 23
252.4163287437386
 33
0.0
  0
SOLID
  5
3F1
330
3EE
100
AcDbEntity
  8
1
 62
     2
100
AcDbTrace
 10
119.7944151690222
 20
246.7839899455391
 30
0.0
 11
119.051878253611
 21
248.1784438410392
 31
0.0
 12
124.7191111671919
 22
250.3012808078317
 32
0.0
 13
124.7191111671919
 23
250.3012808078317
 33
0.0
  0
MTEXT
  5
3F2
330
3EE
100
AcDbEntity
  8
1
 62
     4
100
AcDbMText
 10
139.3359819815509
 20
263.2961772993957
 30
0.0
 40
6.0
 41
0.0
 71
     7
 72
     1
  1
\C4;\U+00f8\C4;4,5
  7
CONVERTER_14
 11
0.8826607426458984
 21
0.4700106524237413
 31
0.0
 73
     1
 44
0.60024009603842
  0
ENDBLK
  5
3F4
330
3EE
100
AcDbEntity
  8
0
100
AcDbBlockEnd
  0
ENDSEC
  0
SECTION
  2
ENTITIES
  0
INSERT
  5
54
330
1F
100
AcDbEntity
  8
0
100
AcDbBlockReference
  2
A4_oriz
 10
594.0000000000002
 20
-0.00000000000003
 30
0.0
  0
POINT
  5
A9
330
1F
100
AcDbEntity
  8
Bemaßungen_TC_020513_DIN_
 62
     7
100
AcDbPoint
 10
93.20509783814553
 20
177.3588047757851
 30
0.0
  0
POINT
  5
AA
330
1F
100
AcDbEntity
  8
Bemaßungen_TC_020513_DIN_
 62
     7
100
AcDbPoint
 10
128.2050978381452
 20
177.3588047757851
 30
0.0
  0
POINT
  5
AB
330
1F
100
AcDbEntity
  8
Bemaßungen_TC_020513_DIN_
 62
     7
100
AcDbPoint
 10
93.20509783814553
 20
177.3588047757851
 30
0.0
  0
POINT
  5
AC
330
1F
100
AcDbEntity
  8
Bemaßungen_TC_020513_DIN_
 62
     7
100
AcDbPoint
 10
93.20509783814555
 20
242.3588047757851
 30
0.0
  0
POINT
  5
AD
330
1F
100
AcDbEntity
  8
Bemaßungen_TC_020513_DIN_
 62
     7
100
AcDbPoint
 10
94.70509783814549
 20
251.3588047757851
 30
0.0
  0
POINT
  5
AE
330
1F
100
AcDbEntity
  8
Bemaßungen_TC_020513_DIN_
 62
     7
100
AcDbPoint
 10
126.7050978381452
 20
251.3588047757851
 30
0.0
  0
POINT
  5
AF
330
1F
100
AcDbEntity
  8
Bemaßungen_TC_020513_DIN_
 62
     7
100
AcDbPoint
 10
126.7050978381452
 20
251.3588047757851
 30
0.0
  0
POINT
  5
B0
330
1F
100
AcDbEntity
  8
Bemaßungen_TC_020513_DIN_
 62
     7
100
AcDbPoint
 10
126.7050978381452
 20
168.3588047757851
 30
0.0
  0
POINT
  5
B1
330
1F
100
AcDbEntity
  8
DISEGNO
 62
     7
100
AcDbPoint
 10
474.1054649775041
 20
243.2587423113791
 30
0.0
  0
LINE
  5
B2
330
1F
100
AcDbEntity
  8
Skizziergeometrie_TC_020513_DIN_
  6
Continuous
 62
     7
100
AcDbLine
 10
93.20509783814555
 20
242.3588047757851
 30
0.0
 11
128.2050978381452
 21
242.3588047757852
 31
0.0
  0
LINE
  5
B3
330
1F
100
AcDbEntity
  8
Skizziergeometrie_TC_020513_DIN_
  6
Continuous
 62
     7
100
AcDbLine
 10
128.2050978381452
 20
242.3588047757852
 30
0.0
 11
128.2050978381452
 21
177.3588047757851
 31
0.0
  0
LINE
  5
B4
330
1F
100
AcDbEntity
  8
Skizziergeometrie_TC_020513_DIN_
  6
Continuous
 62
     7
100
AcDbLine
 10
128.2050978381452
 20
177.3588047757851
 30
0.0
 11
93.20509783814553
 21
177.3588047757851
 31
0.0
  0
LINE
  5
B5
330
1F
100
AcDbEntity
  8
Skizziergeometrie_TC_020513_DIN_
  6
Continuous
 62
     7
100
AcDbLine
 10
93.20509783814553
 20
177.3588047757851
 30
0.0
 11
93.20509783814555
 21
242.3588047757851
 31
0.0
  0
LINE
  5
B6
330
1F
100
AcDbEntity
  8
Mittellinie_TC_020513_DIN_
  6
DASH_CENTER
 62
     2
100
AcDbLine
 10
110.7050978381452
 20
170.8588047757851
 30
0.0
 11
110.7050978381452
 21
248.8588047757851
 31
0.0
  0
LINE
  5
B7
330
1F
100
AcDbEntity
  8
Mittellinie_TC_020513_DIN_
  6
DASH_CENTER
 62
     2
100
AcDbLine
 10
87.20509783814555
 20
209.8588047757851
 30
0.0
 11
134.2050978381452
 21
209.8588047757851
 31
0.0
  0
LINE
  5
B8
330
1F
100
AcDbEntity
  8
Mittelpunktmarkierung_TC_020513_DIN_
  6
DASH_CENTER
 62
     2
100
AcDbLine
 10
101.9550978381455
 20
251.3588047757851
 30
0.0
 11
87.45509783814555
 21
251.3588047757851
 31
0.0
  0
LINE
  5
B9
330
1F
100
AcDbEntity
  8
Mittelpunktmarkierung_TC_020513_DIN_
  6
DASH_CENTER
 62
     2
100
AcDbLine
 10
94.70509783814549
 20
258.6088047757851
 30
0.0
 11
94.70509783814549
 21
244.1088047757851
 31
0.0
  0
LINE
  5
BA
330
1F
100
AcDbEntity
  8
Mittelpunktmarkierung_TC_020513_DIN_
  6
DASH_CENTER
 62
     2
100
AcDbLine
 10
133.9550978381452
 20
251.3588047757851
 30
0.0
 11
119.4550978381452
 21
251.3588047757851
 31
0.0
  0
LINE
  5
BB
330
1F
100
AcDbEntity
  8
Mittelpunktmarkierung_TC_020513_DIN_
  6
DASH_CENTER
 62
     2
100
AcDbLine
 10
126.7050978381452
 20
258.6088047757851
 30
0.0
 11
126.7050978381452
 21
244.1088047757851
 31
0.0
  0
LINE
  5
BC
330
1F
100
AcDbEntity
  8
Mittelpunktmarkierung_TC_020513_DIN_
  6
DASH_CENTER
 62
     2
100
AcDbLine
 10
101.9550978381455
 20
168.3588047757851
 30
0.0
 11
87.45509783814555
 21
168.3588047757851
 31
0.0
  0
LINE
  5
BD
330
1F
100
AcDbEntity
  8
Mittelpunktmarkierung_TC_020513_DIN_
  6
DASH_CENTER
 62
     2
100
AcDbLine
 10
94.70509783814549
 20
175.6088047757851
 30
0.0
 11
94.70509783814549
 21
161.1088047757851
 31
0.0
  0
LINE
  5
BE
330
1F
100
AcDbEntity
  8
Mittelpunktmarkierung_TC_020513_DIN_
  6
DASH_CENTER
 62
     2
100
AcDbLine
 10
133.9550978381452
 20
168.3588047757851
 30
0.0
 11
119.4550978381452
 21
168.3588047757851
 31
0.0
  0
LINE
  5
BF
330
1F
100
AcDbEntity
  8
Mittelpunktmarkierung_TC_020513_DIN_
  6
DASH_CENTER
 62
     2
100
AcDbLine
 10
126.7050978381452
 20
175.6088047757851
 30
0.0
 11
126.7050978381452
 21
161.1088047757851
 31
0.0
  0
LINE
  5
C0
330
1F
100
AcDbEntity
  8
0
  6
Continuous
 62
     7
100
AcDbLine
 10
338.5311393907931
 20
224.3587425593901
 30
0.0
 11
345.2219568425642
 21
224.3587425593901
 31
0.0
  0
LINE
  5
C1
330
1F
100
AcDbEntity
  8
0
  6
Continuous
 62
     7
100
AcDbLine
 10
345.2219568425642
 20
224.3587425593901
 30
0.0
 11
345.2219568425642
 21
226.8587425593901
 31
0.0
  0
LINE
  5
C2
330
1F
100
AcDbEntity
  8
0
  6
Continuous
 62
     7
100
AcDbLine
 10
272.7219568425642
 20
224.3587425593901
 30
0.0
 11
272.7219568425642
 21
226.8587425593901
 31
0.0
  0
LINE
  5
C3
330
1F
100
AcDbEntity
  8
0
  6
Continuous
 62
     7
100
AcDbLine
 10
272.7219568425642
 20
224.3587425593901
 30
0.0
 11
279.4127742943354
 21
224.3587425593901
 31
0.0
  0
LINE
  5
C4
330
1F
100
AcDbEntity
  8
0
  6
Continuous
 62
     7
100
AcDbLine
 10
345.7425103489516
 20
208.8587425593901
 30
0.0
 11
345.4719568425642
 21
224.3587425593901
 31
0.0
  0
LINE
  5
C5
330
1F
100
AcDbEntity
  8
0
  6
Continuous
 62
     7
100
AcDbLine
 10
338.5311393907931
 20
224.3587425593901
 30
0.0
 11
345.4719568425642
 21
224.3587425593901
 31
0.0
  0
LINE
  5
C6
330
1F
100
AcDbEntity
  8
0
  6
Continuous
 62
     7
100
AcDbLine
 10
338.4219568425642
 20
226.8587425593901
 30
0.0
 11
279.5219568425642
 21
226.8587425593901
 31
0.0
  0
LINE
  5
C7
330
1F
100
AcDbEntity
  8
0
  6
Continuous
 62
     7
100
AcDbLine
 10
344.2219568425642
 20
226.8587425593901
 30
0.0
 11
338.4219568425642
 21
226.8587425593901
 31
0.0
  0
LINE
  5
C8
330
1F
100
AcDbEntity
  8
0
  6
Continuous
 62
     7
100
AcDbLine
 10
273.7219568425642
 20
226.8587425593901
 30
0.0
 11
279.5219568425642
 21
226.8587425593901
 31
0.0
  0
LINE
  5
C9
330
1F
100
AcDbEntity
  8
0
  6
Continuous
 62
     7
100
AcDbLine
 10
348.9719568425643
 20
206.8587425593901
 30
0.0
 11
346.760117761341
 21
206.8587425593901
 31
0.0
  0
LINE
  5
CA
330
1F
100
AcDbEntity
  8
0
  6
Continuous
 62
     7
100
AcDbLine
 10
348.9719568425643
 20
206.8587425593901
 30
0.0
 11
350.4114733028354
 21
206.8587425593901
 31
0.0
  0
LINE
  5
CB
330
1F
100
AcDbEntity
  8
0
  6
Continuous
 62
     7
100
AcDbLine
 10
350.4114733028354
 20
206.8587425593901
 30
0.0
 11
354.9107879512935
 21
206.8587425593901
 31
0.0
  0
LINE
  5
CC
330
1F
100
AcDbEntity
  8
0
  6
Continuous
 62
     7
100
AcDbLine
 10
355.4107117988717
 20
206.3674687626087
 30
0.0
 11
355.4422832321862
 21
204.5587425593901
 31
0.0
  0
LINE
  5
CD
330
1F
100
AcDbEntity
  8
0
  6
Continuous
 62
     7
100
AcDbLine
 10
262.5332018862567
 20
206.3674687626087
 30
0.0
 11
262.5016304529422
 21
204.5587425593901
 31
0.0
  0
LINE
  5
CE
330
1F
100
AcDbEntity
  8
0
  6
Continuous
 62
     7
100
AcDbLine
 10
267.5324403620387
 20
206.8587425593901
 30
0.0
 11
263.0331257338349
 21
206.8587425593901
 31
0.0
  0
LINE
  5
CF
330
1F
100
AcDbEntity
  8
0
  6
Continuous
 62
     7
100
AcDbLine
 10
272.4719568425642
 20
224.3587425593901
 30
0.0
 11
272.2014033361769
 21
208.8587425593901
 31
0.0
  0
LINE
  5
D0
330
1F
100
AcDbEntity
  8
0
  6
Continuous
 62
     7
100
AcDbLine
 10
272.4719568425642
 20
224.3587425593901
 30
0.0
 11
279.4127742943354
 21
224.3587425593901
 31
0.0
  0
LINE
  5
D1
330
1F
100
AcDbEntity
  8
0
  6
Continuous
 62
     7
100
AcDbLine
 10
268.9719568425643
 20
206.8587425593901
 30
0.0
 11
267.5324403620387
 21
206.8587425593901
 31
0.0
  0
LINE
  5
D2
330
1F
100
AcDbEntity
  8
0
  6
Continuous
 62
     7
100
AcDbLine
 10
268.9719568425643
 20
206.8587425593901
 30
0.0
 11
271.1837959237876
 21
206.8587425593901
 31
0.0
  0
LINE
  5
D3
330
1F
100
AcDbEntity
  8
0
  6
Continuous
 62
     7
100
AcDbLine
 10
356.7219568425643
 20
204.5587425593901
 30
0.0
 11
356.7219568425643
 21
200.8587425593901
 31
0.0
  0
LINE
  5
D4
330
1F
100
AcDbEntity
  8
0
  6
Continuous
 62
     7
100
AcDbLine
 10
356.7219568425643
 20
204.5587425593901
 30
0.0
 11
350.4719568425643
 21
204.5587425593901
 31
0.0
  0
LINE
  5
D5
330
1F
100
AcDbEntity
  8
0
  6
Continuous
 62
     7
100
AcDbLine
 10
356.7219568425643
 20
200.8587425593901
 30
0.0
 11
350.4719568425643
 21
200.8587425593901
 31
0.0
  0
LINE
  5
D6
330
1F
100
AcDbEntity
  8
0
  6
Continuous
 62
     7
100
AcDbLine
 10
261.2219568425643
 20
204.5587425593901
 30
0.0
 11
261.2219568425643
 21
200.8587425593901
 31
0.0
  0
LINE
  5
D7
330
1F
100
AcDbEntity
  8
0
  6
Continuous
 62
     7
100
AcDbLine
 10
267.4719568425643
 20
204.5587425593901
 30
0.0
 11
261.2219568425643
 21
204.5587425593901
 31
0.0
  0
LINE
  5
D8
330
1F
100
AcDbEntity
  8
0
  6
Continuous
 62
     7
100
AcDbLine
 10
267.4719568425643
 20
200.8587425593901
 30
0.0
 11
261.2219568425643
 21
200.8587425593901
 31
0.0
  0
LINE
  5
D9
330
1F
100
AcDbEntity
  8
0
  6
Continuous
 62
     7
100
AcDbLine
 10
267.4719568425643
 20
200.8587425593901
 30
0.0
 11
350.4719568425643
 21
200.8587425593901
 31
0.0
  0
LINE
  5
DA
330
1F
100
AcDbEntity
  8
0
  6
Continuous
 62
     7
100
AcDbLine
 10
350.4719568425643
 20
204.5587425593901
 30
0.0
 11
267.4719568425643
 21
204.5587425593901
 31
0.0
  0
LINE
  5
DB
330
1F
100
AcDbEntity
  8
0
  6
Continuous
 62
     7
100
AcDbLine
 10
269.4719568425642
 20
224.2587425593901
 30
0.0
 11
268.9719568425643
 21
224.2587425593901
 31
0.0
  0
LINE
  5
DC
330
1F
100
AcDbEntity
  8
0
  6
Continuous
 62
     7
100
AcDbLine
 10
272.4562472841288
 20
223.4587425593901
 30
0.0
 11
272.4283191802437
 21
223.4587425593901
 31
0.0
  0
LINE
  5
DD
330
1F
100
AcDbEntity
  8
0
  6
Continuous
 62
     7
100
AcDbLine
 10
266.7719568425642
 20
224.2587425593901
 30
0.0
 11
266.3283191802437
 21
224.2587425593901
 31
0.0
  0
LINE
  5
DE
330
1F
100
AcDbEntity
  8
0
  6
Continuous
 62
     7
100
AcDbLine
 10
272.4283191802437
 20
221.8587425593901
 30
0.0
 11
272.4283191802437
 21
224.2587425593901
 31
0.0
  0
LINE
  5
DF
330
1F
100
AcDbEntity
  8
0
  6
Continuous
 62
     7
100
AcDbLine
 10
266.3283191802437
 20
217.3587425593901
 30
0.0
 11
265.4283191802437
 21
217.3587425593901
 31
0.0
  0
LINE
  5
E0
330
1F
100
AcDbEntity
  8
0
  6
Continuous
 62
     7
100
AcDbLine
 10
266.3283191802437
 20
217.3587425593901
 30
0.0
 11
266.3283191802437
 21
226.3587425593901
 31
0.0
  0
LINE
  5
E1
330
1F
100
AcDbEntity
  8
0
  6
Continuous
 62
     7
100
AcDbLine
 10
264.9283191802437
 20
217.8587425593901
 30
0.0
 11
264.9283191802437
 21
225.8587425593901
 31
0.0
  0
LINE
  5
E2
330
1F
100
AcDbEntity
  8
0
  6
Continuous
 62
     7
100
AcDbLine
 10
272.386427024416
 20
219.4587425593901
 30
0.0
 11
270.9719568425642
 21
219.4587425593901
 31
0.0
  0
LINE
  5
E3
330
1F
100
AcDbEntity
  8
0
  6
Continuous
 62
     7
100
AcDbLine
 10
272.4283191802437
 20
224.2587425593901
 30
0.0
 11
270.9719568425642
 21
224.2587425593901
 31
0.0
  0
LINE
  5
E4
330
1F
100
AcDbEntity
  8
0
  6
Continuous
 62
     7
100
AcDbLine
 10
266.3283191802437
 20
226.3587425593901
 30
0.0
 11
265.4283191802437
 21
226.3587425593901
 31
0.0
  0
LINE
  5
E5
330
1F
100
AcDbEntity
  8
0
  6
Continuous
 62
     7
100
AcDbLine
 10
269.4719568425642
 20
219.4587425593901
 30
0.0
 11
268.9719568425643
 21
219.4587425593901
 31
0.0
  0
LINE
  5
E6
330
1F
100
AcDbEntity
  8
0
  6
Continuous
 62
     7
100
AcDbLine
 10
266.7719568425642
 20
219.4587425593901
 30
0.0
 11
266.3283191802437
 21
219.4587425593901
 31
0.0
  0
LINE
  5
E7
330
1F
100
AcDbEntity
  8
0
  6
Continuous
 62
     7
100
AcDbLine
 10
345.4876664009996
 20
223.4587425593901
 30
0.0
 11
345.5155945048848
 21
223.4587425593901
 31
0.0
  0
LINE
  5
E8
330
1F
100
AcDbEntity
  8
0
  6
Continuous
 62
     7
100
AcDbLine
 10
348.4719568425643
 20
219.4587425593901
 30
0.0
 11
348.9719568425643
 21
219.4587425593901
 31
0.0
  0
LINE
  5
E9
330
1F
100
AcDbEntity
  8
0
  6
Continuous
 62
     7
100
AcDbLine
 10
345.5574866607125
 20
219.4587425593901
 30
0.0
 11
346.9719568425643
 21
219.4587425593901
 31
0.0
  0
LINE
  5
EA
330
1F
100
AcDbEntity
  8
0
  6
Continuous
 62
     7
100
AcDbLine
 10
348.4719568425643
 20
224.2587425593901
 30
0.0
 11
348.9719568425643
 21
224.2587425593901
 31
0.0
  0
LINE
  5
EB
330
1F
100
AcDbEntity
  8
0
  6
Continuous
 62
     7
100
AcDbLine
 10
345.5155945048848
 20
224.2587425593901
 30
0.0
 11
346.9719568425643
 21
224.2587425593901
 31
0.0
  0
LINE
  5
EC
330
1F
100
AcDbEntity
  8
0
  6
Continuous
 62
     7
100
AcDbLine
 10
345.5155945048848
 20
224.2587425593901
 30
0.0
 11
345.5155945048848
 21
221.8587425593886
 31
0.0
  0
LINE
  5
ED
330
1F
100
AcDbEntity
  8
0
  6
Continuous
 62
     7
100
AcDbLine
 10
351.6155945048848
 20
217.3587425593901
 30
0.0
 11
352.5155945048848
 21
217.3587425593901
 31
0.0
  0
LINE
  5
EE
330
1F
100
AcDbEntity
  8
0
  6
Continuous
 62
     7
100
AcDbLine
 10
353.0155945048848
 20
225.8587425593901
 30
0.0
 11
353.0155945048848
 21
217.8587425593901
 31
0.0
  0
LINE
  5
EF
330
1F
100
AcDbEntity
  8
0
  6
Continuous
 62
     7
100
AcDbLine
 10
351.6155945048848
 20
226.3587425593901
 30
0.0
 11
352.5155945048848
 21
226.3587425593901
 31
0.0
  0
LINE
  5
F0
330
1F
100
AcDbEntity
  8
0
  6
Continuous
 62
     7
100
AcDbLine
 10
351.6155945048848
 20
226.3587425593901
 30
0.0
 11
351.6155945048848
 21
217.3587425593901
 31
0.0
  0
LINE
  5
F1
330
1F
100
AcDbEntity
  8
0
  6
Continuous
 62
     7
100
AcDbLine
 10
351.1719568425643
 20
219.4587425593901
 30
0.0
 11
351.6155945048848
 21
219.4587425593901
 31
0.0
  0
LINE
  5
F2
330
1F
100
AcDbEntity
  8
0
  6
Continuous
 62
     7
100
AcDbLine
 10
351.1719568425643
 20
224.2587425593901
 30
0.0
 11
351.6155945048848
 21
224.2587425593901
 31
0.0
  0
LINE
  5
F3
330
1F
100
AcDbEntity
  8
0
  6
Continuous
 62
     7
100
AcDbLine
 10
449.6054649775043
 20
224.3587425593901
 30
0.0
 11
449.6054649775043
 21
229.55874255939
 31
0.0
  0
LINE
  5
F4
330
1F
100
AcDbEntity
  8
0
  6
Continuous
 62
     7
100
AcDbLine
 10
456.6054649775043
 20
229.55874255939
 30
0.0
 11
475.1978531329294
 21
229.55874255939
 31
0.0
  0
LINE
  5
F5
330
1F
100
AcDbEntity
  8
0
  6
Continuous
 62
     7
100
AcDbLine
 10
449.6054649775043
 20
229.55874255939
 30
0.0
 11
456.6054649775043
 21
229.55874255939
 31
0.0
  0
LINE
  5
F6
330
1F
100
AcDbEntity
  8
0
  6
Continuous
 62
     7
100
AcDbLine
 10
482.1054649775043
 20
224.3587425593901
 30
0.0
 11
485.6054649775043
 21
224.3587425593901
 31
0.0
  0
LINE
  5
F7
330
1F
100
AcDbEntity
  8
0
  6
Continuous
 62
     7
100
AcDbLine
 10
456.6054649775043
 20
224.3587425593901
 30
0.0
 11
465.1054649775043
 21
224.3587425593901
 31
0.0
  0
LINE
  5
F8
330
1F
100
AcDbEntity
  8
0
  6
Continuous
 62
     7
100
AcDbLine
 10
449.6054649775043
 20
224.3587425593901
 30
0.0
 11
456.6054649775043
 21
224.3587425593901
 31
0.0
  0
LINE
  5
F9
330
1F
100
AcDbEntity
  8
0
  6
Continuous
 62
     7
100
AcDbLine
 10
485.6054649775043
 20
224.3587425593901
 30
0.0
 11
492.6054649775043
 21
224.3587425593901
 31
0.0
  0
LINE
  5
FA
330
1F
100
AcDbEntity
  8
0
  6
Continuous
 62
     7
100
AcDbLine
 10
492.6054649775043
 20
224.3587425593901
 30
0.0
 11
492.6054649775043
 21
229.55874255939
 31
0.0
  0
LINE
  5
FB
330
1F
100
AcDbEntity
  8
0
  6
Continuous
 62
     7
100
AcDbLine
 10
486.5115616319142
 20
229.55874255939
 30
0.0
 11
492.6054649775043
 21
229.55874255939
 31
0.0
  0
LINE
  5
FC
330
1F
100
AcDbEntity
  8
0
  6
Continuous
 62
     7
100
AcDbLine
 10
492.6054649775043
 20
224.3587425593901
 30
0.0
 11
492.6692515071677
 21
220.7044147224137
 31
0.0
  0
LINE
  5
FD
330
1F
100
AcDbEntity
  8
0
  6
Continuous
 62
     7
100
AcDbLine
 10
449.3171517732911
 20
207.8412901523741
 30
0.0
 11
449.6054649775043
 21
224.3587425593901
 31
0.0
  0
LINE
  5
FE
330
1F
100
AcDbEntity
  8
0
  6
Continuous
 62
     7
100
AcDbLine
 10
481.1054649775043
 20
206.85874255939
 30
0.0
 11
461.1054649775043
 21
206.85874255939
 31
0.0
  0
LINE
  5
FF
330
1F
100
AcDbEntity
  8
0
  6
Continuous
 62
     7
100
AcDbLine
 10
481.1054649775043
 20
206.85874255939
 30
0.0
 11
482.1054649775043
 21
206.85874255939
 31
0.0
  0
LINE
  5
100
330
1F
100
AcDbEntity
  8
0
  6
Continuous
 62
     7
100
AcDbLine
 10
460.1054649775043
 20
206.85874255939
 30
0.0
 11
461.1054649775043
 21
206.85874255939
 31
0.0
  0
LINE
  5
101
330
1F
100
AcDbEntity
  8
0
  6
Continuous
 62
     7
100
AcDbLine
 10
482.1054649775043
 20
224.3587425593901
 30
0.0
 11
485.6065311114096
 21
224.3587425593901
 31
0.0
  0
LINE
  5
102
330
1F
100
AcDbEntity
  8
0
  6
Continuous
 62
     7
100
AcDbLine
 10
456.604398843599
 20
224.3587425593901
 30
0.0
 11
465.1054649775043
 21
224.3587425593901
 31
0.0
  0
LINE
  5
103
330
1F
100
AcDbEntity
  8
0
  6
Continuous
 62
     7
100
AcDbLine
 10
485.6065311114096
 20
224.3587425593901
 30
0.0
 11
492.6054649775043
 21
224.3587425593901
 31
0.0
  0
LINE
  5
104
330
1F
100
AcDbEntity
  8
0
  6
Continuous
 62
     7
100
AcDbLine
 10
449.6054649775043
 20
224.3587425593901
 30
0.0
 11
456.604398843599
 21
224.3587425593901
 31
0.0
  0
LINE
  5
105
330
1F
100
AcDbEntity
  8
0
  6
Continuous
 62
     7
100
AcDbLine
 10
492.951075263083
 20
204.55874255939
 30
0.0
 11
492.9195038297685
 21
206.3674687626087
 31
0.0
  0
LINE
  5
106
330
1F
100
AcDbEntity
  8
0
  6
Continuous
 62
     7
100
AcDbLine
 10
449.2598546919256
 20
204.55874255939
 30
0.0
 11
449.2914261252401
 21
206.3674687626087
 31
0.0
  0
LINE
  5
107
330
1F
100
AcDbEntity
  8
0
  6
Continuous
 62
     7
100
AcDbLine
 10
482.1054649775043
 20
206.85874255939
 30
0.0
 11
487.9202653539865
 21
206.85874255939
 31
0.0
  0
LINE
  5
108
330
1F
100
AcDbEntity
  8
0
  6
Continuous
 62
     7
100
AcDbLine
 10
492.4195799821903
 20
206.85874255939
 30
0.0
 11
487.9202653539865
 21
206.85874255939
 31
0.0
  0
LINE
  5
109
330
1F
100
AcDbEntity
  8
0
  6
Continuous
 62
     7
100
AcDbLine
 10
492.9195038297685
 20
206.3674687626087
 30
0.0
 11
492.9022010812839
 21
207.35874255939
 31
0.0
  0
LINE
  5
10A
330
1F
100
AcDbEntity
  8
0
  6
Continuous
 62
     7
100
AcDbLine
 10
454.2906646010222
 20
206.85874255939
 30
0.0
 11
449.7913499728183
 21
206.85874255939
 31
0.0
  0
LINE
  5
10B
330
1F
100
AcDbEntity
  8
0
  6
Continuous
 62
     7
100
AcDbLine
 10
454.2906646010222
 20
206.85874255939
 30
0.0
 11
460.1054649775043
 21
206.85874255939
 31
0.0
  0
LINE
  5
10C
330
1F
100
AcDbEntity
  8
0
  6
Continuous
 62
     7
100
AcDbLine
 10
449.3171517732911
 20
207.8412901523741
 30
0.0
 11
449.2914261252401
 21
206.3674687626087
 31
0.0
  0
LINE
  5
10D
330
1F
100
AcDbEntity
  8
0
  6
Continuous
 62
     7
100
AcDbLine
 10
493.8554649775043
 20
204.55874255939
 30
0.0
 11
487.8554649775043
 21
204.55874255939
 31
0.0
  0
LINE
  5
10E
330
1F
100
AcDbEntity
  8
0
  6
Continuous
 62
     7
100
AcDbLine
 10
487.8554649775043
 20
204.55874255939
 30
0.0
 11
454.3554649775043
 21
204.55874255939
 31
0.0
  0
LINE
  5
10F
330
1F
100
AcDbEntity
  8
0
  6
Continuous
 62
     7
100
AcDbLine
 10
493.8554649775043
 20
204.55874255939
 30
0.0
 11
493.8554649775043
 21
200.8587425593901
 31
0.0
  0
LINE
  5
110
330
1F
100
AcDbEntity
  8
0
  6
Continuous
 62
     7
100
AcDbLine
 10
493.8554649775043
 20
200.8587425593901
 30
0.0
 11
487.8554649775043
 21
200.8587425593901
 31
0.0
  0
LINE
  5
111
330
1F
100
AcDbEntity
  8
0
  6
Continuous
 62
     7
100
AcDbLine
 10
454.3554649775043
 20
200.8587425593901
 30
0.0
 11
487.8554649775043
 21
200.8587425593901
 31
0.0
  0
LINE
  5
112
330
1F
100
AcDbEntity
  8
0
  6
Continuous
 62
     7
100
AcDbLine
 10
448.3554649775043
 20
204.55874255939
 30
0.0
 11
448.3554649775043
 21
200.8587425593901
 31
0.0
  0
LINE
  5
113
330
1F
100
AcDbEntity
  8
0
  6
Continuous
 62
     7
100
AcDbLine
 10
454.3554649775043
 20
204.55874255939
 30
0.0
 11
448.3554649775043
 21
204.55874255939
 31
0.0
  0
LINE
  5
114
330
1F
100
AcDbEntity
  8
0
  6
Continuous
 62
     7
100
AcDbLine
 10
454.3554649775043
 20
200.8587425593901
 30
0.0
 11
448.3554649775043
 21
200.8587425593901
 31
0.0
  0
LINE
  5
115
330
1F
100
AcDbEntity
  8
0
  6
Continuous
 62
     7
100
AcDbLine
 10
278.4719568425643
 20
206.8587425593901
 30
0.0
 11
278.4719568425643
 21
207.1183821488802
 31
0.0
  0
LINE
  5
116
330
1F
100
AcDbEntity
  8
0
  6
Continuous
 62
     7
100
AcDbLine
 10
311.2219568425643
 20
206.8587425593901
 30
0.0
 11
306.7219568425643
 21
206.8587425593901
 31
0.0
  0
LINE
  5
117
330
1F
100
AcDbEntity
  8
0
  6
Continuous
 62
     7
100
AcDbLine
 10
279.7948568425642
 20
206.8587425593901
 30
0.0
 11
306.7219568425643
 21
206.8587425593901
 31
0.0
  0
LINE
  5
118
330
1F
100
AcDbEntity
  8
0
  6
Continuous
 62
     7
100
AcDbLine
 10
305.7219568425643
 20
205.8587425593901
 30
0.0
 11
279.4719568425643
 21
205.8587425593901
 31
0.0
  0
LINE
  5
119
330
1F
100
AcDbEntity
  8
0
  6
Continuous
 62
     7
100
AcDbLine
 10
350.4719568425643
 20
221.8972611308701
 30
0.0
 11
350.4719568425643
 21
221.5702128090814
 31
0.0
  0
LINE
  5
11A
330
1F
100
AcDbEntity
  8
0
  6
Continuous
 62
     7
100
AcDbLine
 10
350.4719568425643
 20
221.5702128090814
 30
0.0
 11
350.4719568425643
 21
221.2912954150249
 31
0.0
  0
LINE
  5
11B
330
1F
100
AcDbEntity
  8
0
  6
Continuous
 62
     7
100
AcDbLine
 10
350.4719568425643
 20
222.3769798929608
 30
0.0
 11
350.4719568425643
 21
221.8972611308701
 31
0.0
  0
LINE
  5
11C
330
1F
100
AcDbEntity
  8
0
  6
Continuous
 62
     7
100
AcDbLine
 10
350.4719568425643
 20
222.6896226053833
 30
0.0
 11
350.4719568425643
 21
222.3769798929608
 31
0.0
  0
LINE
  5
11D
330
1F
100
AcDbEntity
  8
0
  6
Continuous
 62
     7
100
AcDbLine
 10
350.9719568425643
 20
218.8587425593901
 30
0.0
 11
351.1719568425643
 21
218.8587425593901
 31
0.0
  0
LINE
  5
11E
330
1F
100
AcDbEntity
  8
0
  6
Continuous
 62
     7
100
AcDbLine
 10
350.4719568425643
 20
223.147922157218
 30
0.0
 11
350.4719568425643
 21
222.6896226053833
 31
0.0
  0
LINE
  5
11F
330
1F
100
AcDbEntity
  8
0
  6
Continuous
 62
     7
100
AcDbLine
 10
350.4719568425643
 20
223.4463851874315
 30
0.0
 11
350.4719568425643
 21
223.147922157218
 31
0.0
  0
LINE
  5
120
330
1F
100
AcDbEntity
  8
0
  6
Continuous
 62
     7
100
AcDbLine
 10
350.4719568425643
 20
223.4463851874315
 30
0.0
 11
350.4719568425643
 21
227.5741403418791
 31
0.0
  0
LINE
  5
121
330
1F
100
AcDbEntity
  8
0
  6
Continuous
 62
     7
100
AcDbLine
 10
350.9719568425643
 20
224.8587425593901
 30
0.0
 11
351.1719568425643
 21
224.8587425593901
 31
0.0
  0
LINE
  5
122
330
1F
100
AcDbEntity
  8
0
  6
Continuous
 62
     7
100
AcDbLine
 10
351.1719568425643
 20
218.8587425593901
 30
0.0
 11
351.1719568425643
 21
224.8587425593901
 31
0.0
  0
LINE
  5
123
330
1F
100
AcDbEntity
  8
0
  6
Continuous
 62
     7
100
AcDbLine
 10
348.9719568425643
 20
221.2912954150249
 30
0.0
 11
348.9719568425643
 21
227.5741403418791
 31
0.0
  0
LINE
  5
124
330
1F
100
AcDbEntity
  8
0
  6
Continuous
 62
     7
100
AcDbLine
 10
348.9719568425643
 20
227.5741403418791
 30
0.0
 11
348.9719568425643
 21
228.3587425593901
 31
0.0
  0
LINE
  5
125
330
1F
100
AcDbEntity
  8
0
  6
Continuous
 62
     7
100
AcDbLine
 10
350.4719568425643
 20
227.5741403418791
 30
0.0
 11
350.4719568425643
 21
228.3587425593901
 31
0.0
  0
LINE
  5
126
330
1F
100
AcDbEntity
  8
0
  6
Continuous
 62
     7
100
AcDbLine
 10
348.9719568425643
 20
228.3587425593901
 30
0.0
 11
350.4719568425643
 21
228.3587425593901
 31
0.0
  0
LINE
  5
127
330
1F
100
AcDbEntity
  8
0
  6
Continuous
 62
     7
100
AcDbLine
 10
280.4719568425643
 20
207.3587425593901
 30
0.0
 11
337.4719568425643
 21
207.3587425593901
 31
0.0
  0
LINE
  5
128
330
1F
100
AcDbEntity
  8
0
  6
Continuous
 62
     7
100
AcDbLine
 10
270.8412767004351
 20
207.3587425593901
 30
0.0
 11
280.4719568425643
 21
207.3587425593901
 31
0.0
  0
LINE
  5
129
330
1F
100
AcDbEntity
  8
0
  6
Continuous
 62
     7
100
AcDbLine
 10
338.1490568425643
 20
206.85874255939
 30
0.0
 11
311.2219568425643
 21
206.8587425593901
 31
0.0
  0
LINE
  5
12A
330
1F
100
AcDbEntity
  8
0
  6
Continuous
 62
     7
100
AcDbLine
 10
312.2219568425643
 20
205.8587425593901
 30
0.0
 11
338.4719568425643
 21
205.8587425593901
 31
0.0
  0
LINE
  5
12B
330
1F
100
AcDbEntity
  8
0
  6
Continuous
 62
     2
100
AcDbLine
 10
338.1490568425643
 20
206.85874255939
 30
0.0
 11
338.1490568425643
 21
207.3587425593901
 31
0.0
  0
LINE
  5
12C
330
1F
100
AcDbEntity
  8
0
  6
Continuous
 62
     7
100
AcDbLine
 10
280.4719568425643
 20
208.8587425593901
 30
0.0
 11
337.4719568425643
 21
208.8587425593901
 31
0.0
  0
LINE
  5
12D
330
1F
100
AcDbEntity
  8
0
  6
Continuous
 62
     7
100
AcDbLine
 10
270.8412767004351
 20
207.3587425593901
 30
0.0
 11
270.4719568425643
 21
207.3587425593901
 31
0.0
  0
LINE
  5
12E
330
1F
100
AcDbEntity
  8
0
  6
Continuous
 62
     7
100
AcDbLine
 10
268.9719568425643
 20
210.3587425593901
 30
0.0
 11
268.9719568425643
 21
212.8587425593901
 31
0.0
  0
LINE
  5
12F
330
1F
100
AcDbEntity
  8
0
  6
Continuous
 62
     7
100
AcDbLine
 10
270.8412767004351
 20
208.8587425593901
 30
0.0
 11
270.8412767004351
 21
207.3587425593901
 31
0.0
  0
LINE
  5
130
330
1F
100
AcDbEntity
  8
0
  6
Continuous
 62
     7
100
AcDbLine
 10
268.9719568425643
 20
206.8587425593901
 30
0.0
 11
268.9719568425643
 21
207.7606663480367
 31
0.0
  0
LINE
  5
131
330
1F
100
AcDbEntity
  8
0
  6
Continuous
 62
     7
100
AcDbLine
 10
270.8412767004351
 20
208.8587425593901
 30
0.0
 11
270.4719568425643
 21
208.8587425593901
 31
0.0
  0
LINE
  5
132
330
1F
100
AcDbEntity
  8
0
  6
Continuous
 62
     7
100
AcDbLine
 10
270.8412767004351
 20
208.8587425593901
 30
0.0
 11
280.4719568425643
 21
208.8587425593901
 31
0.0
  0
LINE
  5
133
330
1F
100
AcDbEntity
  8
0
  6
Continuous
 62
     7
100
AcDbLine
 10
339.4719568425643
 20
207.1183821488802
 30
0.0
 11
339.4719568425643
 21
206.8587425593901
 31
0.0
  0
LINE
  5
134
330
1F
100
AcDbEntity
  8
0
  6
Continuous
 62
     7
100
AcDbLine
 10
347.1026369846934
 20
208.8587425593901
 30
0.0
 11
347.1026369846934
 21
207.3587425593901
 31
0.0
  0
LINE
  5
135
330
1F
100
AcDbEntity
  8
0
  6
Continuous
 62
     7
100
AcDbLine
 10
347.1026369846934
 20
208.8587425593901
 30
0.0
 11
337.4719568425643
 21
208.8587425593901
 31
0.0
  0
LINE
  5
136
330
1F
100
AcDbEntity
  8
0
  6
Continuous
 62
     7
100
AcDbLine
 10
347.1026369846934
 20
207.3587425593901
 30
0.0
 11
337.4719568425643
 21
207.3587425593901
 31
0.0
  0
LINE
  5
137
330
1F
100
AcDbEntity
  8
0
  6
Continuous
 62
     7
100
AcDbLine
 10
348.9719568425643
 20
206.8587425593901
 30
0.0
 11
348.9719568425643
 21
207.7606663480367
 31
0.0
  0
LINE
  5
138
330
1F
100
AcDbEntity
  8
0
  6
Continuous
 62
     7
100
AcDbLine
 10
348.9719568425643
 20
210.3587425593901
 30
0.0
 11
348.9719568425643
 21
212.8587425593901
 31
0.0
  0
LINE
  5
139
330
1F
100
AcDbEntity
  8
0
  6
Continuous
 62
     7
100
AcDbLine
 10
347.1026369846934
 20
208.8587425593901
 30
0.0
 11
347.4719568425643
 21
208.8587425593901
 31
0.0
  0
LINE
  5
13A
330
1F
100
AcDbEntity
  8
0
  6
Continuous
 62
     7
100
AcDbLine
 10
350.4719568425643
 20
209.4920289391659
 30
0.0
 11
350.4719568425643
 21
209.1087425593901
 31
0.0
  0
LINE
  5
13B
330
1F
100
AcDbEntity
  8
0
  6
Continuous
 62
     7
100
AcDbLine
 10
350.4719568425643
 20
210.3587425593901
 30
0.0
 11
350.4719568425643
 21
209.4920289391659
 31
0.0
  0
LINE
  5
13C
330
1F
100
AcDbEntity
  8
0
  6
Continuous
 62
     7
100
AcDbLine
 10
350.4719568425643
 20
210.3604425054357
 30
0.0
 11
350.4719568425643
 21
210.3587425593901
 31
0.0
  0
LINE
  5
13D
330
1F
100
AcDbEntity
  8
0
  6
Continuous
 62
     7
100
AcDbLine
 10
350.4719568425643
 20
210.6087425593901
 30
0.0
 11
350.4719568425643
 21
210.3768323040721
 31
0.0
  0
LINE
  5
13E
330
1F
100
AcDbEntity
  8
0
  6
Continuous
 62
     7
100
AcDbLine
 10
350.4719568425643
 20
210.3768323040721
 30
0.0
 11
350.4719568425643
 21
210.3604425054357
 31
0.0
  0
LINE
  5
13F
330
1F
100
AcDbEntity
  8
0
  6
Continuous
 62
     7
100
AcDbLine
 10
347.1026369846934
 20
207.3587425593901
 30
0.0
 11
347.4719568425643
 21
207.3587425593901
 31
0.0
  0
LINE
  5
140
330
1F
100
AcDbEntity
  8
0
  6
Continuous
 62
     7
100
AcDbLine
 10
348.9719568425643
 20
206.8587425593901
 30
0.0
 11
350.4719568425643
 21
206.8587425593901
 31
0.0
  0
LINE
  5
141
330
1F
100
AcDbEntity
  8
0
  6
Continuous
 62
     7
100
AcDbLine
 10
350.4719568425643
 20
206.8587425593901
 30
0.0
 11
350.4719568425643
 21
209.1087425593901
 31
0.0
  0
LINE
  5
142
330
1F
100
AcDbEntity
  8
0
  6
Continuous
 62
     7
100
AcDbLine
 10
266.9719568425643
 20
218.8587425593901
 30
0.0
 11
266.7719568425642
 21
218.8587425593901
 31
0.0
  0
LINE
  5
143
330
1F
100
AcDbEntity
  8
0
  6
Continuous
 62
     7
100
AcDbLine
 10
266.7719568425642
 20
218.8587425593901
 30
0.0
 11
266.7719568425642
 21
219.4587425593901
 31
0.0
  0
LINE
  5
144
330
1F
100
AcDbEntity
  8
0
  6
Continuous
 62
     7
100
AcDbLine
 10
267.4719568425643
 20
221.0951313268895
 30
0.0
 11
267.4719568425643
 21
220.8979285022777
 31
0.0
  0
LINE
  5
145
330
1F
100
AcDbEntity
  8
0
  6
Continuous
 62
     7
100
AcDbLine
 10
267.4719568425643
 20
221.0951313268895
 30
0.0
 11
267.4719568425643
 21
221.2912954150249
 31
0.0
  0
LINE
  5
146
330
1F
100
AcDbEntity
  8
0
  6
Continuous
 62
     7
100
AcDbLine
 10
267.4719568425643
 20
220.8587425593901
 30
0.0
 11
267.4719568425643
 21
220.8979285022777
 31
0.0
  0
LINE
  5
147
330
1F
100
AcDbEntity
  8
0
  6
Continuous
 62
     7
100
AcDbLine
 10
267.4719568425643
 20
221.2912954150249
 30
0.0
 11
267.4719568425643
 21
221.5702128090815
 31
0.0
  0
LINE
  5
148
330
1F
100
AcDbEntity
  8
0
  6
Continuous
 62
     7
100
AcDbLine
 10
267.4719568425643
 20
221.8972611308701
 30
0.0
 11
267.4719568425643
 21
221.5702128090815
 31
0.0
  0
LINE
  5
149
330
1F
100
AcDbEntity
  8
0
  6
Continuous
 62
     7
100
AcDbLine
 10
267.4719568425643
 20
220.8587425593901
 30
0.0
 11
267.4719568425643
 21
218.3587425593901
 31
0.0
  0
LINE
  5
14A
330
1F
100
AcDbEntity
  8
0
  6
Continuous
 62
     7
100
AcDbLine
 10
267.4719568425642
 20
210.6087425593901
 30
0.0
 11
267.4719568425643
 21
210.3768323040721
 31
0.0
  0
LINE
  5
14B
330
1F
100
AcDbEntity
  8
0
  6
Continuous
 62
     7
100
AcDbLine
 10
267.4719568425643
 20
210.3604425054357
 30
0.0
 11
267.4719568425643
 21
210.3587425593901
 31
0.0
  0
LINE
  5
14C
330
1F
100
AcDbEntity
  8
0
  6
Continuous
 62
     7
100
AcDbLine
 10
267.4719568425643
 20
210.3768323040721
 30
0.0
 11
267.4719568425643
 21
210.3604425054357
 31
0.0
  0
LINE
  5
14D
330
1F
100
AcDbEntity
  8
0
  6
Continuous
 62
     7
100
AcDbLine
 10
267.4719568425643
 20
212.8587425593901
 30
0.0
 11
267.4719568425642
 21
210.6087425593901
 31
0.0
  0
LINE
  5
14E
330
1F
100
AcDbEntity
  8
0
  6
Continuous
 62
     7
100
AcDbLine
 10
267.4719568425643
 20
210.3587425593901
 30
0.0
 11
267.4719568425643
 21
209.4920289391659
 31
0.0
  0
LINE
  5
14F
330
1F
100
AcDbEntity
  8
0
  6
Continuous
 62
     7
100
AcDbLine
 10
267.4719568425643
 20
209.4920289391659
 30
0.0
 11
267.4719568425642
 21
209.1087425593901
 31
0.0
  0
LINE
  5
150
330
1F
100
AcDbEntity
  8
0
  6
Continuous
 62
     7
100
AcDbLine
 10
267.4719568425642
 20
209.1087425593901
 30
0.0
 11
267.4719568425643
 21
206.8587425593901
 31
0.0
  0
LINE
  5
151
330
1F
100
AcDbEntity
  8
0
  6
Continuous
 62
     7
100
AcDbLine
 10
267.4719568425643
 20
218.3587425593901
 30
0.0
 11
267.4719568425643
 21
212.8587425593901
 31
0.0
  0
LINE
  5
152
330
1F
100
AcDbEntity
  8
0
  6
Continuous
 62
     2
100
AcDbLine
 10
267.4719568425643
 20
221.2912954150249
 30
0.0
 11
268.9719568425643
 21
221.2912954150249
 31
0.0
  0
LINE
  5
153
330
1F
100
AcDbEntity
  8
0
  6
Continuous
 62
     7
100
AcDbLine
 10
267.4719568425643
 20
220.8587425593901
 30
0.0
 11
268.9719568425643
 21
220.8587425593901
 31
0.0
  0
LINE
  5
154
330
1F
100
AcDbEntity
  8
0
  6
Continuous
 62
     7
100
AcDbLine
 10
268.9719568425643
 20
220.8587425593901
 30
0.0
 11
268.9719568425643
 21
221.2912954150249
 31
0.0
  0
LINE
  5
155
330
1F
100
AcDbEntity
  8
0
  6
Continuous
 62
     7
100
AcDbLine
 10
268.9719568425643
 20
206.8587425593901
 30
0.0
 11
267.4719568425643
 21
206.8587425593901
 31
0.0
  0
LINE
  5
156
330
1F
100
AcDbEntity
  8
0
  6
Continuous
 62
     7
100
AcDbLine
 10
266.9719568425643
 20
224.8587425593901
 30
0.0
 11
266.7719568425642
 21
224.8587425593901
 31
0.0
  0
LINE
  5
157
330
1F
100
AcDbEntity
  8
0
  6
Continuous
 62
     7
100
AcDbLine
 10
267.4719568425643
 20
221.8972611308701
 30
0.0
 11
267.4719568425643
 21
222.3769798929608
 31
0.0
  0
LINE
  5
158
330
1F
100
AcDbEntity
  8
0
  6
Continuous
 62
     7
100
AcDbLine
 10
267.4719568425643
 20
222.6896226053833
 30
0.0
 11
267.4719568425643
 21
223.147922157218
 31
0.0
  0
LINE
  5
159
330
1F
100
AcDbEntity
  8
0
  6
Continuous
 62
     7
100
AcDbLine
 10
267.4719568425643
 20
222.6896226053833
 30
0.0
 11
267.4719568425643
 21
222.3769798929608
 31
0.0
  0
LINE
  5
15A
330
1F
100
AcDbEntity
  8
0
  6
Continuous
 62
     7
100
AcDbLine
 10
266.7719568425642
 20
224.8587425593901
 30
0.0
 11
266.7719568425642
 21
219.4587425593901
 31
0.0
  0
LINE
  5
15B
330
1F
100
AcDbEntity
  8
0
  6
Continuous
 62
     7
100
AcDbLine
 10
267.4719568425643
 20
223.4463851874315
 30
0.0
 11
267.4719568425643
 21
227.5741403418791
 31
0.0
  0
LINE
  5
15C
330
1F
100
AcDbEntity
  8
0
  6
Continuous
 62
     7
100
AcDbLine
 10
267.4719568425643
 20
223.4463851874315
 30
0.0
 11
267.4719568425643
 21
223.147922157218
 31
0.0
  0
LINE
  5
15D
330
1F
100
AcDbEntity
  8
0
  6
Continuous
 62
     7
100
AcDbLine
 10
268.9719568425643
 20
228.3587425593901
 30
0.0
 11
267.4719568425643
 21
228.3587425593901
 31
0.0
  0
LINE
  5
15E
330
1F
100
AcDbEntity
  8
0
  6
Continuous
 62
     7
100
AcDbLine
 10
268.9719568425643
 20
221.2912954150249
 30
0.0
 11
268.9719568425643
 21
227.5741403418791
 31
0.0
  0
LINE
  5
15F
330
1F
100
AcDbEntity
  8
0
  6
Continuous
 62
     7
100
AcDbLine
 10
267.4719568425643
 20
227.5741403418791
 30
0.0
 11
267.4719568425643
 21
228.3587425593901
 31
0.0
  0
LINE
  5
160
330
1F
100
AcDbEntity
  8
0
  6
Continuous
 62
     7
100
AcDbLine
 10
268.9719568425643
 20
227.5741403418791
 30
0.0
 11
268.9719568425643
 21
228.3587425593901
 31
0.0
  0
LINE
  5
161
330
1F
100
AcDbEntity
  8
0
  6
Continuous
 62
     7
100
AcDbLine
 10
350.4719568425643
 20
212.8587425593901
 30
0.0
 11
350.4719568425643
 21
210.6087425593901
 31
0.0
  0
LINE
  5
162
330
1F
100
AcDbEntity
  8
0
  6
Continuous
 62
     7
100
AcDbLine
 10
350.4719568425643
 20
218.3587425593901
 30
0.0
 11
350.4719568425643
 21
212.8587425593901
 31
0.0
  0
LINE
  5
163
330
1F
100
AcDbEntity
  8
0
  6
Continuous
 62
     7
100
AcDbLine
 10
350.4719568425643
 20
220.8587425593901
 30
0.0
 11
350.4719568425643
 21
218.3587425593901
 31
0.0
  0
LINE
  5
164
330
1F
100
AcDbEntity
  8
0
  6
Continuous
 62
     7
100
AcDbLine
 10
348.9719568425643
 20
220.8587425593901
 30
0.0
 11
348.9719568425643
 21
221.2912954150249
 31
0.0
  0
LINE
  5
165
330
1F
100
AcDbEntity
  8
0
  6
Continuous
 62
     7
100
AcDbLine
 10
350.4719568425643
 20
220.8587425593901
 30
0.0
 11
350.4719568425643
 21
220.8979285022777
 31
0.0
  0
LINE
  5
166
330
1F
100
AcDbEntity
  8
0
  6
Continuous
 62
     7
100
AcDbLine
 10
350.4719568425643
 20
221.0951313268895
 30
0.0
 11
350.4719568425643
 21
221.2912954150249
 31
0.0
  0
LINE
  5
167
330
1F
100
AcDbEntity
  8
0
  6
Continuous
 62
     7
100
AcDbLine
 10
350.4719568425643
 20
221.0951313268895
 30
0.0
 11
350.4719568425643
 21
220.8979285022777
 31
0.0
  0
LINE
  5
168
330
1F
100
AcDbEntity
  8
0
  6
Continuous
 62
     7
100
AcDbLine
 10
350.4719568425643
 20
220.8587425593901
 30
0.0
 11
348.9719568425643
 21
220.8587425593901
 31
0.0
  0
LINE
  5
169
330
1F
100
AcDbEntity
  8
0
  6
Continuous
 62
     7
100
AcDbLine
 10
348.9719568425643
 20
220.8587425593901
 30
0.0
 11
348.9719568425643
 21
212.8587425593901
 31
0.0
  0
LINE
  5
16A
330
1F
100
AcDbEntity
  8
0
  6
Continuous
 62
     7
100
AcDbLine
 10
268.9719568425643
 20
220.8587425593901
 30
0.0
 11
268.9719568425643
 21
212.8587425593901
 31
0.0
  0
LINE
  5
16B
330
1F
100
AcDbEntity
  8
0
  6
Continuous
 62
     2
100
AcDbLine
 10
282.2812621917817
 20
217.7956646890235
 30
0.0
 11
282.3930406949091
 21
217.1617372964125
 31
0.0
  0
LINE
  5
16C
330
1F
100
AcDbEntity
  8
0
  6
Continuous
 62
     7
100
AcDbLine
 10
280.3007092499904
 20
219.323013188381
 30
0.0
 11
280.4124877531178
 21
218.6890857957699
 31
0.0
  0
LINE
  5
16D
330
1F
100
AcDbEntity
  8
0
  6
Continuous
 62
     7
100
AcDbLine
 10
339.8110564737415
 20
226.8587425593901
 30
0.0
 11
278.1328572113869
 21
226.85874255939
 31
0.0
  0
LINE
  5
16E
330
1F
100
AcDbEntity
  8
0
  6
Continuous
 62
     7
100
AcDbLine
 10
346.9719568425643
 20
225.4455391237937
 30
0.0
 11
346.9719568425643
 21
224.7384323426071
 31
0.0
  0
LINE
  5
16F
330
1F
100
AcDbEntity
  8
0
  6
Continuous
 62
     7
100
AcDbLine
 10
344.9719568425643
 20
226.8587425593901
 30
0.0
 11
339.8110564737415
 21
226.8587425593901
 31
0.0
  0
LINE
  5
170
330
1F
100
AcDbEntity
  8
0
  6
Continuous
 62
     7
100
AcDbLine
 10
272.9719568425642
 20
226.8587425593901
 30
0.0
 11
278.1328572113869
 21
226.85874255939
 31
0.0
  0
LINE
  5
171
330
1F
100
AcDbEntity
  8
0
  6
Continuous
 62
     7
100
AcDbLine
 10
348.9719568425643
 20
233.1587425593901
 30
0.0
 11
349.9719568425643
 21
233.1587425593901
 31
0.0
  0
LINE
  5
172
330
1F
100
AcDbEntity
  8
0
  6
Continuous
 62
     7
100
AcDbLine
 10
349.9719568425643
 20
233.1587425593901
 30
0.0
 11
349.9719568425643
 21
234.6587425593901
 31
0.0
  0
LINE
  5
173
330
1F
100
AcDbEntity
  8
0
  6
Continuous
 62
     7
100
AcDbLine
 10
348.9719568425643
 20
240.6587425593901
 30
0.0
 11
349.9719568425643
 21
240.6587425593901
 31
0.0
  0
LINE
  5
174
330
1F
100
AcDbEntity
  8
0
  6
Continuous
 62
     7
100
AcDbLine
 10
349.9719568425643
 20
240.6587425593901
 30
0.0
 11
349.9719568425643
 21
234.6587425593901
 31
0.0
  0
LINE
  5
175
330
1F
100
AcDbEntity
  8
0
  6
Continuous
 62
     7
100
AcDbLine
 10
338.8262487207293
 20
226.032390737057
 30
0.0
 11
337.6432044351381
 21
219.323013188381
 31
0.0
  0
LINE
  5
176
330
1F
100
AcDbEntity
  8
0
  6
Continuous
 62
     7
100
AcDbLine
 10
269.4719568425642
 20
211.1087425593901
 30
0.0
 11
270.9719568425642
 21
211.1087425593901
 31
0.0
  0
LINE
  5
177
330
1F
100
AcDbEntity
  8
0
  6
Continuous
 62
     7
100
AcDbLine
 10
282.3930406949091
 20
217.1617372964125
 30
0.0
 11
335.5508729902193
 21
217.1617372964125
 31
0.0
  0
LINE
  5
178
330
1F
100
AcDbEntity
  8
0
  6
Continuous
 62
     7
100
AcDbLine
 10
350.4719568425643
 20
210.6087425593901
 30
0.0
 11
350.4719568425643
 21
209.1087425593901
 31
0.0
  0
LINE
  5
179
330
1F
100
AcDbEntity
  8
0
  6
Continuous
 62
     7
100
AcDbLine
 10
350.4719568425643
 20
210.6087425593901
 30
0.0
 11
351.4719568425643
 21
210.6087425593901
 31
0.0
  0
LINE
  5
17A
330
1F
100
AcDbEntity
  8
0
  6
Continuous
 62
     7
100
AcDbLine
 10
350.4719568425643
 20
209.1087425593901
 30
0.0
 11
351.4719568425643
 21
209.1087425593901
 31
0.0
  0
LINE
  5
17B
330
1F
100
AcDbEntity
  8
0
  6
Continuous
 62
     7
100
AcDbLine
 10
351.4719568425643
 20
209.1087425593901
 30
0.0
 11
351.4719568425643
 21
210.6087425593901
 31
0.0
  0
LINE
  5
17C
330
1F
100
AcDbEntity
  8
0
  6
Continuous
 62
     7
100
AcDbLine
 10
267.4719568425642
 20
210.6087425593901
 30
0.0
 11
267.4719568425642
 21
209.1087425593901
 31
0.0
  0
LINE
  5
17D
330
1F
100
AcDbEntity
  8
0
  6
Continuous
 62
     7
100
AcDbLine
 10
267.4719568425642
 20
210.6087425593901
 30
0.0
 11
266.4719568425642
 21
210.6087425593901
 31
0.0
  0
LINE
  5
17E
330
1F
100
AcDbEntity
  8
0
  6
Continuous
 62
     7
100
AcDbLine
 10
267.4719568425642
 20
209.1087425593901
 30
0.0
 11
266.4719568425642
 21
209.1087425593901
 31
0.0
  0
LINE
  5
17F
330
1F
100
AcDbEntity
  8
0
  6
Continuous
 62
     7
100
AcDbLine
 10
266.4719568425642
 20
209.1087425593901
 30
0.0
 11
266.4719568425642
 21
210.6087425593901
 31
0.0
  0
LINE
  5
180
330
1F
100
AcDbEntity
  8
0
  6
Continuous
 62
     7
100
AcDbLine
 10
279.1176649643991
 20
226.032390737057
 30
0.0
 11
280.3007092499904
 21
219.323013188381
 31
0.0
  0
LINE
  5
181
330
1F
100
AcDbEntity
  8
0
  6
Continuous
 62
     7
100
AcDbLine
 10
270.9719568425642
 20
222.1087425593901
 30
0.0
 11
270.9719568425642
 21
224.7384323426071
 31
0.0
  0
LINE
  5
182
330
1F
100
AcDbEntity
  8
0
  6
Continuous
 62
     7
100
AcDbLine
 10
269.4719568425642
 20
222.1087425593901
 30
0.0
 11
269.4719568425642
 21
224.7384323426071
 31
0.0
  0
LINE
  5
183
330
1F
100
AcDbEntity
  8
0
  6
Continuous
 62
     7
100
AcDbLine
 10
270.9719568425642
 20
225.4455391237936
 30
0.0
 11
270.9719568425642
 21
224.7384323426071
 31
0.0
  0
LINE
  5
184
330
1F
100
AcDbEntity
  8
0
  6
Continuous
 62
     7
100
AcDbLine
 10
269.4719568425642
 20
225.4455391237936
 30
0.0
 11
269.4719568425642
 21
224.7384323426071
 31
0.0
  0
LINE
  5
185
330
1F
100
AcDbEntity
  8
0
  6
Continuous
 62
     7
100
AcDbLine
 10
348.4719568425643
 20
222.1087425593901
 30
0.0
 11
348.4719568425643
 21
224.7384323426071
 31
0.0
  0
LINE
  5
186
330
1F
100
AcDbEntity
  8
0
  6
Continuous
 62
     7
100
AcDbLine
 10
346.9719568425643
 20
222.1087425593901
 30
0.0
 11
346.9719568425643
 21
224.7384323426071
 31
0.0
  0
LINE
  5
187
330
1F
100
AcDbEntity
  8
0
  6
Continuous
 62
     7
100
AcDbLine
 10
346.9719568425643
 20
226.8587425593901
 30
0.0
 11
346.9719568425643
 21
225.4455391237937
 31
0.0
  0
LINE
  5
188
330
1F
100
AcDbEntity
  8
0
  6
Continuous
 62
     7
100
AcDbLine
 10
269.4719568425642
 20
226.8587425593901
 30
0.0
 11
269.4719568425642
 21
225.4455391237936
 31
0.0
  0
LINE
  5
189
330
1F
100
AcDbEntity
  8
0
  6
Continuous
 62
     7
100
AcDbLine
 10
270.9719568425642
 20
226.8587425593901
 30
0.0
 11
270.9719568425642
 21
225.4455391237936
 31
0.0
  0
LINE
  5
18A
330
1F
100
AcDbEntity
  8
0
  6
Continuous
 62
     7
100
AcDbLine
 10
269.4719568425642
 20
226.8587425593901
 30
0.0
 11
269.4719568425642
 21
233.1585258744935
 31
0.0
  0
LINE
  5
18B
330
1F
100
AcDbEntity
  8
0
  6
Continuous
 62
     7
100
AcDbLine
 10
348.4719568425643
 20
226.8587425593901
 30
0.0
 11
348.4719568425643
 21
233.1585258744935
 31
0.0
  0
LINE
  5
18C
330
1F
100
AcDbEntity
  8
0
  6
Continuous
 62
     7
100
AcDbLine
 10
348.4719568425643
 20
225.4455391237937
 30
0.0
 11
348.4719568425643
 21
226.8587425593901
 31
0.0
  0
LINE
  5
18D
330
1F
100
AcDbEntity
  8
0
  6
Continuous
 62
     7
100
AcDbLine
 10
348.4719568425643
 20
224.7384323426071
 30
0.0
 11
348.4719568425643
 21
225.4455391237937
 31
0.0
  0
LINE
  5
18E
330
1F
100
AcDbEntity
  8
0
  6
Continuous
 62
     7
100
AcDbLine
 10
272.9719568425642
 20
226.8587425593901
 30
0.0
 11
269.4719568425642
 21
226.8587425593901
 31
0.0
  0
LINE
  5
18F
330
1F
100
AcDbEntity
  8
0
  6
Continuous
 62
     7
100
AcDbLine
 10
348.4719568425643
 20
226.8587425593901
 30
0.0
 11
344.9719568425643
 21
226.8587425593901
 31
0.0
  0
LINE
  5
190
330
1F
100
AcDbEntity
  8
0
  6
Continuous
 62
     7
100
AcDbLine
 10
342.2716936275282
 20
235.2159549497035
 30
0.0
 11
343.3504193199548
 21
236.5015301690766
 31
0.0
  0
LINE
  5
191
330
1F
100
AcDbEntity
  8
0
  6
Continuous
 62
     7
100
AcDbLine
 10
275.6722200576003
 20
235.2159549497035
 30
0.0
 11
274.5934943651736
 21
236.5015301690766
 31
0.0
  0
LINE
  5
192
330
1F
100
AcDbEntity
  8
0
  6
Continuous
 62
     7
100
AcDbLine
 10
268.9719568425642
 20
233.1587425593901
 30
0.0
 11
267.9719568425642
 21
233.1587425593901
 31
0.0
  0
LINE
  5
193
330
1F
100
AcDbEntity
  8
0
  6
Continuous
 62
     7
100
AcDbLine
 10
269.4717401576676
 20
233.1587425593901
 30
0.0
 11
268.9719568425642
 21
233.1587425593901
 31
0.0
  0
LINE
  5
194
330
1F
100
AcDbEntity
  8
0
  6
Continuous
 62
     7
100
AcDbLine
 10
348.4721735274609
 20
233.1587425593901
 30
0.0
 11
348.9719568425643
 21
233.1587425593901
 31
0.0
  0
LINE
  5
195
330
1F
100
AcDbEntity
  8
0
  6
Continuous
 62
     7
100
AcDbLine
 10
348.4719568425643
 20
233.1585258744935
 30
0.0
 11
348.4719568425643
 21
236.8953095153878
 31
0.0
  0
LINE
  5
196
330
1F
100
AcDbEntity
  8
0
  6
Continuous
 62
     7
100
AcDbLine
 10
269.4719568425642
 20
233.1585258744935
 30
0.0
 11
269.4719568425642
 21
236.8953095153878
 31
0.0
  0
LINE
  5
197
330
1F
100
AcDbEntity
  8
0
  6
Continuous
 62
     7
100
AcDbLine
 10
267.9719568425642
 20
233.1587425593901
 30
0.0
 11
267.9719568425642
 21
234.6587425593901
 31
0.0
  0
LINE
  5
198
330
1F
100
AcDbEntity
  8
0
  6
Continuous
 62
     7
100
AcDbLine
 10
348.4719568425643
 20
236.8953095153878
 30
0.0
 11
348.4719568425643
 21
236.9927171556056
 31
0.0
  0
LINE
  5
199
330
1F
100
AcDbEntity
  8
0
  6
Continuous
 62
     7
100
AcDbLine
 10
338.5664047869348
 20
235.3587425593901
 30
0.0
 11
338.6722009753598
 21
235.3587425593901
 31
0.0
  0
LINE
  5
19A
330
1F
100
AcDbEntity
  8
0
  6
Continuous
 62
     7
100
AcDbLine
 10
338.6722009753598
 20
236.8587425593901
 30
0.0
 11
338.5664047869348
 21
236.8587425593901
 31
0.0
  0
LINE
  5
19B
330
1F
100
AcDbEntity
  8
0
  6
Continuous
 62
     7
100
AcDbLine
 10
338.6722009753598
 20
235.3587425593901
 30
0.0
 11
338.7427317676433
 21
235.3587425593901
 31
0.0
  0
LINE
  5
19C
330
1F
100
AcDbEntity
  8
0
  6
Continuous
 62
     7
100
AcDbLine
 10
337.7905660718175
 20
235.35874255939
 30
0.0
 11
337.8258314679592
 21
235.55874255939
 31
0.0
  0
LINE
  5
19D
330
1F
100
AcDbEntity
  8
0
  6
Continuous
 62
     7
100
AcDbLine
 10
337.7905660718175
 20
236.8587425593901
 30
0.0
 11
337.8610968641009
 21
236.8587425593901
 31
0.0
  0
LINE
  5
19E
330
1F
100
AcDbEntity
  8
0
  6
Continuous
 62
     7
100
AcDbLine
 10
337.8610968641009
 20
235.3587425593901
 30
0.0
 11
337.7905660718175
 21
235.35874255939
 31
0.0
  0
LINE
  5
19F
330
1F
100
AcDbEntity
  8
0
  6
Continuous
 62
     7
100
AcDbLine
 10
337.966893052526
 20
235.3587425593901
 30
0.0
 11
338.0374238448094
 21
235.3587425593901
 31
0.0
  0
LINE
  5
1A0
330
1F
100
AcDbEntity
  8
0
  6
Continuous
 62
     7
100
AcDbLine
 10
337.966893052526
 20
236.8587425593901
 30
0.0
 11
338.0374238448094
 21
236.8587425593901
 31
0.0
  0
LINE
  5
1A1
330
1F
100
AcDbEntity
  8
0
  6
Continuous
 62
     7
100
AcDbLine
 10
338.0374238448094
 20
235.3587425593901
 30
0.0
 11
338.1432200332345
 21
235.3587425593901
 31
0.0
  0
LINE
  5
1A2
330
1F
100
AcDbEntity
  8
0
  6
Continuous
 62
     7
100
AcDbLine
 10
338.0374238448094
 20
236.8587425593901
 30
0.0
 11
338.1432200332345
 21
236.8587425593901
 31
0.0
  0
LINE
  5
1A3
330
1F
100
AcDbEntity
  8
0
  6
Continuous
 62
     7
100
AcDbLine
 10
337.8610968641009
 20
235.3587425593901
 30
0.0
 11
337.966893052526
 21
235.3587425593901
 31
0.0
  0
LINE
  5
1A4
330
1F
100
AcDbEntity
  8
0
  6
Continuous
 62
     7
100
AcDbLine
 10
337.8610968641009
 20
236.8587425593901
 30
0.0
 11
337.966893052526
 21
236.8587425593901
 31
0.0
  0
LINE
  5
1A5
330
1F
100
AcDbEntity
  8
0
  6
Continuous
 62
     7
100
AcDbLine
 10
338.2137508255179
 20
235.3587425593901
 30
0.0
 11
338.319547013943
 21
235.3587425593901
 31
0.0
  0
LINE
  5
1A6
330
1F
100
AcDbEntity
  8
0
  6
Continuous
 62
     7
100
AcDbLine
 10
338.319547013943
 20
236.8587425593901
 30
0.0
 11
338.3900778062263
 21
236.8587425593901
 31
0.0
  0
LINE
  5
1A7
330
1F
100
AcDbEntity
  8
0
  6
Continuous
 62
     7
100
AcDbLine
 10
338.2137508255179
 20
236.8587425593901
 30
0.0
 11
338.319547013943
 21
236.8587425593901
 31
0.0
  0
LINE
  5
1A8
330
1F
100
AcDbEntity
  8
0
  6
Continuous
 62
     7
100
AcDbLine
 10
338.3900778062263
 20
235.3587425593901
 30
0.0
 11
338.319547013943
 21
235.3587425593901
 31
0.0
  0
LINE
  5
1A9
330
1F
100
AcDbEntity
  8
0
  6
Continuous
 62
     7
100
AcDbLine
 10
338.3900778062263
 20
235.3587425593901
 30
0.0
 11
338.4958739946514
 21
235.3587425593901
 31
0.0
  0
LINE
  5
1AA
330
1F
100
AcDbEntity
  8
0
  6
Continuous
 62
     7
100
AcDbLine
 10
338.3900778062263
 20
236.8587425593901
 30
0.0
 11
338.4958739946514
 21
236.8587425593901
 31
0.0
  0
LINE
  5
1AB
330
1F
100
AcDbEntity
  8
0
  6
Continuous
 62
     7
100
AcDbLine
 10
338.4958739946514
 20
236.8587425593901
 30
0.0
 11
338.5664047869348
 21
236.8587425593901
 31
0.0
  0
LINE
  5
1AC
330
1F
100
AcDbEntity
  8
0
  6
Continuous
 62
     7
100
AcDbLine
 10
338.5664047869348
 20
235.3587425593901
 30
0.0
 11
338.4958739946514
 21
235.3587425593901
 31
0.0
  0
LINE
  5
1AD
330
1F
100
AcDbEntity
  8
0
  6
Continuous
 62
     7
100
AcDbLine
 10
338.2137508255179
 20
235.3587425593901
 30
0.0
 11
338.1432200332345
 21
235.3587425593901
 31
0.0
  0
LINE
  5
1AE
330
1F
100
AcDbEntity
  8
0
  6
Continuous
 62
     7
100
AcDbLine
 10
338.1432200332345
 20
236.8587425593901
 30
0.0
 11
338.2137508255179
 21
236.8587425593901
 31
0.0
  0
LINE
  5
1AF
330
1F
100
AcDbEntity
  8
0
  6
Continuous
 62
     7
100
AcDbLine
 10
344.1164637630738
 20
236.8587425593901
 30
0.0
 11
344.9719568425643
 21
236.8587425593901
 31
0.0
  0
LINE
  5
1B0
330
1F
100
AcDbEntity
  8
0
  6
Continuous
 62
     7
100
AcDbLine
 10
338.6722009753598
 20
236.8587425593901
 30
0.0
 11
338.7427317676433
 21
236.8587425593901
 31
0.0
  0
LINE
  5
1B1
330
1F
100
AcDbEntity
  8
0
  6
Continuous
 62
     7
100
AcDbLine
 10
348.4616850884704
 20
236.8587425593901
 30
0.0
 11
344.9719568425643
 21
236.8587425593901
 31
0.0
  0
LINE
  5
1B2
330
1F
100
AcDbEntity
  8
0
  6
Continuous
 62
     7
100
AcDbLine
 10
346.9719568425643
 20
236.8953095153878
 30
0.0
 11
346.9719568425643
 21
236.9927171556056
 31
0.0
  0
LINE
  5
1B3
330
1F
100
AcDbEntity
  8
0
  6
Continuous
 62
     7
100
AcDbLine
 10
269.4719568425642
 20
239.7940418308996
 30
0.0
 11
269.6719568425642
 21
239.6905142128586
 31
0.0
  0
LINE
  5
1B4
330
1F
100
AcDbEntity
  8
0
  6
Continuous
 62
     7
100
AcDbLine
 10
269.4719568425642
 20
239.7940418308996
 30
0.0
 11
269.4719568425642
 21
240.1046246850226
 31
0.0
  0
LINE
  5
1B5
330
1F
100
AcDbEntity
  8
0
  6
Continuous
 62
     7
100
AcDbLine
 10
337.966893052526
 20
235.3587425593901
 30
0.0
 11
338.0021584486677
 21
235.55874255939
 31
0.0
  0
LINE
  5
1B6
330
1F
100
AcDbEntity
  8
0
  6
Continuous
 62
     7
100
AcDbLine
 10
338.1432200332345
 20
235.3587425593901
 30
0.0
 11
338.1784854293762
 21
235.55874255939
 31
0.0
  0
LINE
  5
1B7
330
1F
100
AcDbEntity
  8
0
  6
Continuous
 62
     7
100
AcDbLine
 10
338.88379335221
 20
236.8587425593901
 30
0.0
 11
338.7427317676433
 21
236.8587425593901
 31
0.0
  0
LINE
  5
1B8
330
1F
100
AcDbEntity
  8
0
  6
Continuous
 62
     7
100
AcDbLine
 10
338.4958739946514
 20
235.3587425593901
 30
0.0
 11
338.5311393907931
 21
235.55874255939
 31
0.0
  0
LINE
  5
1B9
330
1F
100
AcDbEntity
  8
0
  6
Continuous
 62
     7
100
AcDbLine
 10
338.6722009753598
 20
235.3587425593901
 30
0.0
 11
338.7074663715015
 21
235.55874255939
 31
0.0
  0
LINE
  5
1BA
330
1F
100
AcDbEntity
  8
0
  6
Continuous
 62
     7
100
AcDbLine
 10
338.7074663715015
 20
235.55874255939
 30
0.0
 11
338.7427317676433
 21
235.3587425593901
 31
0.0
  0
LINE
  5
1BB
330
1F
100
AcDbEntity
  8
0
  6
Continuous
 62
     7
100
AcDbLine
 10
338.7427317676433
 20
235.3587425593901
 30
0.0
 11
338.88379335221
 21
235.3587425593901
 31
0.0
  0
LINE
  5
1BC
330
1F
100
AcDbEntity
  8
0
  6
Continuous
 62
     7
100
AcDbLine
 10
338.3548124100846
 20
236.6587425593901
 30
0.0
 11
338.319547013943
 21
236.8587425593901
 31
0.0
  0
LINE
  5
1BD
330
1F
100
AcDbEntity
  8
0
  6
Continuous
 62
     7
100
AcDbLine
 10
338.319547013943
 20
235.3587425593901
 30
0.0
 11
338.3548124100846
 21
235.5587425593901
 31
0.0
  0
LINE
  5
1BE
330
1F
100
AcDbEntity
  8
0
  6
Continuous
 62
     7
100
AcDbLine
 10
338.1784854293762
 20
236.6587425593901
 30
0.0
 11
338.1432200332345
 21
236.8587425593901
 31
0.0
  0
LINE
  5
1BF
330
1F
100
AcDbEntity
  8
0
  6
Continuous
 62
     7
100
AcDbLine
 10
338.7074663715015
 20
236.6587425593901
 30
0.0
 11
338.6722009753598
 21
236.8587425593901
 31
0.0
  0
LINE
  5
1C0
330
1F
100
AcDbEntity
  8
0
  6
Continuous
 62
     7
100
AcDbLine
 10
338.7427317676433
 20
236.8587425593901
 30
0.0
 11
338.7074663715015
 21
236.6587425593901
 31
0.0
  0
LINE
  5
1C1
330
1F
100
AcDbEntity
  8
0
  6
Continuous
 62
     7
100
AcDbLine
 10
338.0021584486677
 20
236.6587425593901
 30
0.0
 11
337.966893052526
 21
236.8587425593901
 31
0.0
  0
LINE
  5
1C2
330
1F
100
AcDbEntity
  8
0
  6
Continuous
 62
     7
100
AcDbLine
 10
338.9719568425642
 20
234.8587425593901
 30
0.0
 11
338.9719568425642
 21
236.7952342324938
 31
0.0
  0
LINE
  5
1C3
330
1F
100
AcDbEntity
  8
0
  6
Continuous
 62
     7
100
AcDbLine
 10
338.9719568425642
 20
234.8587425593901
 30
0.0
 11
341.5056491844092
 21
234.8587425593901
 31
0.0
  0
LINE
  5
1C4
330
1F
100
AcDbEntity
  8
0
  6
Continuous
 62
     7
100
AcDbLine
 10
337.8258314679592
 20
236.6587425593901
 30
0.0
 11
337.7905660718175
 21
236.8587425593901
 31
0.0
  0
LINE
  5
1C5
330
1F
100
AcDbEntity
  8
0
  6
Continuous
 62
     7
100
AcDbLine
 10
282.1489354409407
 20
236.8587425593901
 30
0.0
 11
335.7949782441878
 21
236.8587425593901
 31
0.0
  0
LINE
  5
1C6
330
1F
100
AcDbEntity
  8
0
  6
Continuous
 62
     7
100
AcDbLine
 10
335.7949782441878
 20
236.8587425593901
 30
0.0
 11
337.3949782441877
 21
236.8587425593901
 31
0.0
  0
LINE
  5
1C7
330
1F
100
AcDbEntity
  8
0
  6
Continuous
 62
     7
100
AcDbLine
 10
337.6280085221701
 20
236.8587425593901
 30
0.0
 11
337.7645937502122
 21
236.8587425593901
 31
0.0
  0
LINE
  5
1C8
330
1F
100
AcDbEntity
  8
0
  6
Continuous
 62
     7
100
AcDbLine
 10
337.3949782441877
 20
236.8587425593901
 30
0.0
 11
337.6280085221701
 21
236.8587425593901
 31
0.0
  0
LINE
  5
1C9
330
1F
100
AcDbEntity
  8
0
  6
Continuous
 62
     7
100
AcDbLine
 10
338.3548124100846
 20
235.5587425593901
 30
0.0
 11
338.3900778062263
 21
235.3587425593901
 31
0.0
  0
LINE
  5
1CA
330
1F
100
AcDbEntity
  8
0
  6
Continuous
 62
     7
100
AcDbLine
 10
338.0374238448094
 20
236.8587425593901
 30
0.0
 11
338.0021584486677
 21
236.6587425593901
 31
0.0
  0
LINE
  5
1CB
330
1F
100
AcDbEntity
  8
0
  6
Continuous
 62
     7
100
AcDbLine
 10
337.8258314679592
 20
235.55874255939
 30
0.0
 11
337.8610968641009
 21
235.3587425593901
 31
0.0
  0
LINE
  5
1CC
330
1F
100
AcDbEntity
  8
0
  6
Continuous
 62
     7
100
AcDbLine
 10
337.7645937502122
 20
235.3587425593901
 30
0.0
 11
337.7905660718175
 21
235.35874255939
 31
0.0
  0
LINE
  5
1CD
330
1F
100
AcDbEntity
  8
0
  6
Continuous
 62
     7
100
AcDbLine
 10
338.1784854293762
 20
235.55874255939
 30
0.0
 11
338.2137508255179
 21
235.3587425593901
 31
0.0
  0
LINE
  5
1CE
330
1F
100
AcDbEntity
  8
0
  6
Continuous
 62
     7
100
AcDbLine
 10
338.5311393907931
 20
235.55874255939
 30
0.0
 11
338.5664047869348
 21
235.3587425593901
 31
0.0
  0
LINE
  5
1CF
330
1F
100
AcDbEntity
  8
0
  6
Continuous
 62
     7
100
AcDbLine
 10
337.8610968641009
 20
236.8587425593901
 30
0.0
 11
337.8258314679592
 21
236.6587425593901
 31
0.0
  0
LINE
  5
1D0
330
1F
100
AcDbEntity
  8
0
  6
Continuous
 62
     7
100
AcDbLine
 10
337.7645937502122
 20
236.8587425593901
 30
0.0
 11
337.7905660718175
 21
236.8587425593901
 31
0.0
  0
LINE
  5
1D1
330
1F
100
AcDbEntity
  8
0
  6
Continuous
 62
     7
100
AcDbLine
 10
337.3949782441877
 20
235.3587425593901
 30
0.0
 11
335.7949782441878
 21
235.3587425593901
 31
0.0
  0
LINE
  5
1D2
330
1F
100
AcDbEntity
  8
0
  6
Continuous
 62
     7
100
AcDbLine
 10
337.7645937502122
 20
235.3587425593901
 30
0.0
 11
337.6280085221701
 21
235.3587425593901
 31
0.0
  0
LINE
  5
1D3
330
1F
100
AcDbEntity
  8
0
  6
Continuous
 62
     7
100
AcDbLine
 10
337.6280085221701
 20
235.3587425593901
 30
0.0
 11
337.3949782441877
 21
235.3587425593901
 31
0.0
  0
LINE
  5
1D4
330
1F
100
AcDbEntity
  8
0
  6
Continuous
 62
     7
100
AcDbLine
 10
338.0021584486677
 20
235.55874255939
 30
0.0
 11
338.0374238448094
 21
235.3587425593901
 31
0.0
  0
LINE
  5
1D5
330
1F
100
AcDbEntity
  8
0
  6
Continuous
 62
     7
100
AcDbLine
 10
338.2137508255179
 20
236.8587425593901
 30
0.0
 11
338.1784854293762
 21
236.6587425593901
 31
0.0
  0
LINE
  5
1D6
330
1F
100
AcDbEntity
  8
0
  6
Continuous
 62
     7
100
AcDbLine
 10
338.3900778062263
 20
236.8587425593901
 30
0.0
 11
338.3548124100846
 21
236.6587425593901
 31
0.0
  0
LINE
  5
1D7
330
1F
100
AcDbEntity
  8
0
  6
Continuous
 62
     7
100
AcDbLine
 10
338.5311393907931
 20
236.6587425593901
 30
0.0
 11
338.4958739946514
 21
236.8587425593901
 31
0.0
  0
LINE
  5
1D8
330
1F
100
AcDbEntity
  8
0
  6
Continuous
 62
     7
100
AcDbLine
 10
338.5664047869348
 20
236.8587425593901
 30
0.0
 11
338.5311393907931
 21
236.6587425593901
 31
0.0
  0
LINE
  5
1D9
330
1F
100
AcDbEntity
  8
0
  6
Continuous
 62
     7
100
AcDbLine
 10
335.7949782441878
 20
235.3587425593901
 30
0.0
 11
282.1489354409407
 21
235.3587425593901
 31
0.0
  0
LINE
  5
1DA
330
1F
100
AcDbEntity
  8
0
  6
Continuous
 62
     7
100
AcDbLine
 10
279.2011819174853
 20
236.8587425593901
 30
0.0
 11
279.2364473136269
 21
236.6587425593901
 31
0.0
  0
LINE
  5
1DB
330
1F
100
AcDbEntity
  8
0
  6
Continuous
 62
     7
100
AcDbLine
 10
348.4719568425643
 20
239.7940418308996
 30
0.0
 11
348.2719568425642
 21
239.6905142128586
 31
0.0
  0
LINE
  5
1DC
330
1F
100
AcDbEntity
  8
0
  6
Continuous
 62
     7
100
AcDbLine
 10
348.2719568425642
 20
239.6905142128586
 30
0.0
 11
348.4719568425643
 21
239.5869865948176
 31
0.0
  0
LINE
  5
1DD
330
1F
100
AcDbEntity
  8
0
  6
Continuous
 62
     7
100
AcDbLine
 10
348.2719568425642
 20
239.1728761226536
 30
0.0
 11
348.4719568425643
 21
239.0693485046126
 31
0.0
  0
LINE
  5
1DE
330
1F
100
AcDbEntity
  8
0
  6
Continuous
 62
     7
100
AcDbLine
 10
348.4719568425643
 20
239.2764037406946
 30
0.0
 11
348.2719568425642
 21
239.1728761226536
 31
0.0
  0
LINE
  5
1DF
330
1F
100
AcDbEntity
  8
0
  6
Continuous
 62
     7
100
AcDbLine
 10
348.4719568425643
 20
239.2764037406946
 30
0.0
 11
348.4719568425643
 21
239.5869865948176
 31
0.0
  0
LINE
  5
1E0
330
1F
100
AcDbEntity
  8
0
  6
Continuous
 62
     7
100
AcDbLine
 10
348.4719568425643
 20
239.0693485046126
 30
0.0
 11
348.4719568425643
 21
239.2764037406946
 31
0.0
  0
LINE
  5
1E1
330
1F
100
AcDbEntity
  8
0
  6
Continuous
 62
     7
100
AcDbLine
 10
348.4719568425643
 20
239.5869865948176
 30
0.0
 11
348.4719568425643
 21
239.7940418308996
 31
0.0
  0
LINE
  5
1E2
330
1F
100
AcDbEntity
  8
0
  6
Continuous
 62
     7
100
AcDbLine
 10
348.4719568425643
 20
236.9927171556056
 30
0.0
 11
348.4719568425643
 21
239.0693485046126
 31
0.0
  0
LINE
  5
1E3
330
1F
100
AcDbEntity
  8
0
  6
Continuous
 62
     7
100
AcDbLine
 10
348.4719568425643
 20
239.7940418308996
 30
0.0
 11
348.4719568425643
 21
240.1046246850226
 31
0.0
  0
LINE
  5
1E4
330
1F
100
AcDbEntity
  8
0
  6
Continuous
 62
     7
100
AcDbLine
 10
280.0828168210276
 20
236.8587425593901
 30
0.0
 11
280.1180822171693
 21
236.6587425593901
 31
0.0
  0
LINE
  5
1E5
330
1F
100
AcDbEntity
  8
0
  6
Continuous
 62
     7
100
AcDbLine
 10
279.7654282557523
 20
235.55874255939
 30
0.0
 11
279.7301628596106
 21
235.3587425593901
 31
0.0
  0
LINE
  5
1E6
330
1F
100
AcDbEntity
  8
0
  6
Continuous
 62
     7
100
AcDbLine
 10
279.7301628596106
 20
236.8587425593901
 30
0.0
 11
279.7654282557523
 21
236.6587425593901
 31
0.0
  0
LINE
  5
1E7
330
1F
100
AcDbEntity
  8
0
  6
Continuous
 62
     7
100
AcDbLine
 10
279.4127742943354
 20
236.6587425593901
 30
0.0
 11
279.4480396904771
 21
236.8587425593901
 31
0.0
  0
LINE
  5
1E8
330
1F
100
AcDbEntity
  8
0
  6
Continuous
 62
     7
100
AcDbLine
 10
280.5489354409407
 20
236.8587425593901
 30
0.0
 11
282.1489354409407
 21
236.8587425593901
 31
0.0
  0
LINE
  5
1E9
330
1F
100
AcDbEntity
  8
0
  6
Continuous
 62
     7
100
AcDbLine
 10
279.800693651894
 20
236.8587425593901
 30
0.0
 11
279.9064898403191
 21
236.8587425593901
 31
0.0
  0
LINE
  5
1EA
330
1F
100
AcDbEntity
  8
0
  6
Continuous
 62
     7
100
AcDbLine
 10
279.9770206326025
 20
236.8587425593901
 30
0.0
 11
280.0828168210276
 21
236.8587425593901
 31
0.0
  0
LINE
  5
1EB
330
1F
100
AcDbEntity
  8
0
  6
Continuous
 62
     7
100
AcDbLine
 10
279.9064898403191
 20
236.8587425593901
 30
0.0
 11
279.9770206326025
 21
236.8587425593901
 31
0.0
  0
LINE
  5
1EC
330
1F
100
AcDbEntity
  8
0
  6
Continuous
 62
     7
100
AcDbLine
 10
279.6243666711856
 20
236.8587425593901
 30
0.0
 11
279.7301628596106
 21
236.8587425593901
 31
0.0
  0
LINE
  5
1ED
330
1F
100
AcDbEntity
  8
0
  6
Continuous
 62
     7
100
AcDbLine
 10
279.5538358789021
 20
236.8587425593901
 30
0.0
 11
279.6243666711856
 21
236.8587425593901
 31
0.0
  0
LINE
  5
1EE
330
1F
100
AcDbEntity
  8
0
  6
Continuous
 62
     7
100
AcDbLine
 10
279.7301628596106
 20
236.8587425593901
 30
0.0
 11
279.800693651894
 21
236.8587425593901
 31
0.0
  0
LINE
  5
1EF
330
1F
100
AcDbEntity
  8
0
  6
Continuous
 62
     7
100
AcDbLine
 10
280.0828168210276
 20
236.8587425593901
 30
0.0
 11
280.1533476133109
 21
236.8587425593901
 31
0.0
  0
LINE
  5
1F0
330
1F
100
AcDbEntity
  8
0
  6
Continuous
 62
     7
100
AcDbLine
 10
280.3159051629584
 20
236.8587425593901
 30
0.0
 11
280.5489354409407
 21
236.8587425593901
 31
0.0
  0
LINE
  5
1F1
330
1F
100
AcDbEntity
  8
0
  6
Continuous
 62
     7
100
AcDbLine
 10
280.1533476133109
 20
236.8587425593901
 30
0.0
 11
280.1793199349163
 21
236.8587425593901
 31
0.0
  0
LINE
  5
1F2
330
1F
100
AcDbEntity
  8
0
  6
Continuous
 62
     7
100
AcDbLine
 10
280.1793199349163
 20
236.8587425593901
 30
0.0
 11
280.3159051629584
 21
236.8587425593901
 31
0.0
  0
LINE
  5
1F3
330
1F
100
AcDbEntity
  8
0
  6
Continuous
 62
     7
100
AcDbLine
 10
279.5891012750438
 20
235.55874255939
 30
0.0
 11
279.5538358789021
 21
235.3587425593901
 31
0.0
  0
LINE
  5
1F4
330
1F
100
AcDbEntity
  8
0
  6
Continuous
 62
     7
100
AcDbLine
 10
279.5538358789021
 20
236.8587425593901
 30
0.0
 11
279.5891012750438
 21
236.6587425593901
 31
0.0
  0
LINE
  5
1F5
330
1F
100
AcDbEntity
  8
0
  6
Continuous
 62
     7
100
AcDbLine
 10
280.5489354409407
 20
235.3587425593901
 30
0.0
 11
280.3159051629584
 21
235.35874255939
 31
0.0
  0
LINE
  5
1F6
330
1F
100
AcDbEntity
  8
0
  6
Continuous
 62
     7
100
AcDbLine
 10
282.1489354409407
 20
235.3587425593901
 30
0.0
 11
280.5489354409407
 21
235.3587425593901
 31
0.0
  0
LINE
  5
1F7
330
1F
100
AcDbEntity
  8
0
  6
Continuous
 62
     7
100
AcDbLine
 10
280.1793199349163
 20
235.3587425593901
 30
0.0
 11
280.1533476133109
 21
235.3587425593901
 31
0.0
  0
LINE
  5
1F8
330
1F
100
AcDbEntity
  8
0
  6
Continuous
 62
     7
100
AcDbLine
 10
280.1533476133109
 20
235.3587425593901
 30
0.0
 11
280.0828168210276
 21
235.3587425593901
 31
0.0
  0
LINE
  5
1F9
330
1F
100
AcDbEntity
  8
0
  6
Continuous
 62
     7
100
AcDbLine
 10
280.3159051629584
 20
235.35874255939
 30
0.0
 11
280.1793199349163
 21
235.3587425593901
 31
0.0
  0
LINE
  5
1FA
330
1F
100
AcDbEntity
  8
0
  6
Continuous
 62
     7
100
AcDbLine
 10
279.7301628596106
 20
235.3587425593901
 30
0.0
 11
279.6243666711856
 21
235.3587425593901
 31
0.0
  0
LINE
  5
1FB
330
1F
100
AcDbEntity
  8
0
  6
Continuous
 62
     7
100
AcDbLine
 10
279.9064898403191
 20
235.3587425593901
 30
0.0
 11
279.800693651894
 21
235.3587425593901
 31
0.0
  0
LINE
  5
1FC
330
1F
100
AcDbEntity
  8
0
  6
Continuous
 62
     7
100
AcDbLine
 10
280.0828168210276
 20
235.3587425593901
 30
0.0
 11
279.9770206326025
 21
235.3587425593901
 31
0.0
  0
LINE
  5
1FD
330
1F
100
AcDbEntity
  8
0
  6
Continuous
 62
     7
100
AcDbLine
 10
279.5538358789021
 20
235.3587425593901
 30
0.0
 11
279.4480396904771
 21
235.3587425593901
 31
0.0
  0
LINE
  5
1FE
330
1F
100
AcDbEntity
  8
0
  6
Continuous
 62
     7
100
AcDbLine
 10
279.9064898403191
 20
235.3587425593901
 30
0.0
 11
279.9770206326025
 21
235.3587425593901
 31
0.0
  0
LINE
  5
1FF
330
1F
100
AcDbEntity
  8
0
  6
Continuous
 62
     7
100
AcDbLine
 10
279.800693651894
 20
235.3587425593901
 30
0.0
 11
279.7301628596106
 21
235.3587425593901
 31
0.0
  0
LINE
  5
200
330
1F
100
AcDbEntity
  8
0
  6
Continuous
 62
     7
100
AcDbLine
 10
279.6243666711856
 20
235.3587425593901
 30
0.0
 11
279.5538358789021
 21
235.3587425593901
 31
0.0
  0
LINE
  5
201
330
1F
100
AcDbEntity
  8
0
  6
Continuous
 62
     7
100
AcDbLine
 10
279.4127742943354
 20
235.55874255939
 30
0.0
 11
279.3775088981937
 21
235.3587425593901
 31
0.0
  0
LINE
  5
202
330
1F
100
AcDbEntity
  8
0
  6
Continuous
 62
     7
100
AcDbLine
 10
279.3775088981937
 20
236.8587425593901
 30
0.0
 11
279.4127742943354
 21
236.6587425593901
 31
0.0
  0
LINE
  5
203
330
1F
100
AcDbEntity
  8
0
  6
Continuous
 62
     7
100
AcDbLine
 10
279.6243666711856
 20
235.3587425593901
 30
0.0
 11
279.5891012750438
 21
235.55874255939
 31
0.0
  0
LINE
  5
204
330
1F
100
AcDbEntity
  8
0
  6
Continuous
 62
     7
100
AcDbLine
 10
280.1180822171693
 20
235.55874255939
 30
0.0
 11
280.0828168210276
 21
235.3587425593901
 31
0.0
  0
LINE
  5
205
330
1F
100
AcDbEntity
  8
0
  6
Continuous
 62
     7
100
AcDbLine
 10
279.4480396904771
 20
236.8587425593901
 30
0.0
 11
279.5538358789021
 21
236.8587425593901
 31
0.0
  0
LINE
  5
206
330
1F
100
AcDbEntity
  8
0
  6
Continuous
 62
     7
100
AcDbLine
 10
279.9417552364608
 20
235.55874255939
 30
0.0
 11
279.9064898403191
 21
235.3587425593901
 31
0.0
  0
LINE
  5
207
330
1F
100
AcDbEntity
  8
0
  6
Continuous
 62
     7
100
AcDbLine
 10
279.9064898403191
 20
236.8587425593901
 30
0.0
 11
279.9417552364608
 21
236.6587425593901
 31
0.0
  0
LINE
  5
208
330
1F
100
AcDbEntity
  8
0
  6
Continuous
 62
     7
100
AcDbLine
 10
279.2011819174853
 20
235.3587425593901
 30
0.0
 11
279.0601203329185
 21
235.3587425593901
 31
0.0
  0
LINE
  5
209
330
1F
100
AcDbEntity
  8
0
  6
Continuous
 62
     7
100
AcDbLine
 10
279.3775088981937
 20
235.3587425593901
 30
0.0
 11
279.2717127097686
 21
235.3587425593901
 31
0.0
  0
LINE
  5
20A
330
1F
100
AcDbEntity
  8
0
  6
Continuous
 62
     7
100
AcDbLine
 10
279.2364473136269
 20
235.55874255939
 30
0.0
 11
279.2011819174853
 21
235.3587425593901
 31
0.0
  0
LINE
  5
20B
330
1F
100
AcDbEntity
  8
0
  6
Continuous
 62
     7
100
AcDbLine
 10
279.4480396904771
 20
235.3587425593901
 30
0.0
 11
279.3775088981937
 21
235.3587425593901
 31
0.0
  0
LINE
  5
20C
330
1F
100
AcDbEntity
  8
0
  6
Continuous
 62
     7
100
AcDbLine
 10
279.2011819174853
 20
235.3587425593901
 30
0.0
 11
279.2717127097686
 21
235.3587425593901
 31
0.0
  0
LINE
  5
20D
330
1F
100
AcDbEntity
  8
0
  6
Continuous
 62
     7
100
AcDbLine
 10
270.9719568425642
 20
236.9927171556056
 30
0.0
 11
270.9719568425642
 21
236.8953095153878
 31
0.0
  0
LINE
  5
20E
330
1F
100
AcDbEntity
  8
0
  6
Continuous
 62
     7
100
AcDbLine
 10
269.4719568425642
 20
236.8953095153878
 30
0.0
 11
269.4719568425642
 21
236.9927171556056
 31
0.0
  0
LINE
  5
20F
330
1F
100
AcDbEntity
  8
0
  6
Continuous
 62
     7
100
AcDbLine
 10
272.9719568425642
 20
236.8587425593901
 30
0.0
 11
269.4822285966581
 21
236.8587425593901
 31
0.0
  0
LINE
  5
210
330
1F
100
AcDbEntity
  8
0
  6
Continuous
 62
     7
100
AcDbLine
 10
279.2364473136269
 20
236.6587425593901
 30
0.0
 11
279.2717127097686
 21
236.8587425593901
 31
0.0
  0
LINE
  5
211
330
1F
100
AcDbEntity
  8
0
  6
Continuous
 62
     7
100
AcDbLine
 10
279.9417552364608
 20
236.6587425593901
 30
0.0
 11
279.9770206326025
 21
236.8587425593901
 31
0.0
  0
LINE
  5
212
330
1F
100
AcDbEntity
  8
0
  6
Continuous
 62
     7
100
AcDbLine
 10
279.7654282557523
 20
236.6587425593901
 30
0.0
 11
279.800693651894
 21
236.8587425593901
 31
0.0
  0
LINE
  5
213
330
1F
100
AcDbEntity
  8
0
  6
Continuous
 62
     7
100
AcDbLine
 10
273.8274499220547
 20
236.8587425593901
 30
0.0
 11
272.9719568425642
 21
236.8587425593901
 31
0.0
  0
LINE
  5
214
330
1F
100
AcDbEntity
  8
0
  6
Continuous
 62
     7
100
AcDbLine
 10
280.1180822171693
 20
236.6587425593901
 30
0.0
 11
280.1533476133109
 21
236.8587425593901
 31
0.0
  0
LINE
  5
215
330
1F
100
AcDbEntity
  8
0
  6
Continuous
 62
     7
100
AcDbLine
 10
279.3775088981937
 20
236.8587425593901
 30
0.0
 11
279.4480396904771
 21
236.8587425593901
 31
0.0
  0
LINE
  5
216
330
1F
100
AcDbEntity
  8
0
  6
Continuous
 62
     7
100
AcDbLine
 10
279.2717127097686
 20
236.8587425593901
 30
0.0
 11
279.3775088981937
 21
236.8587425593901
 31
0.0
  0
LINE
  5
217
330
1F
100
AcDbEntity
  8
0
  6
Continuous
 62
     7
100
AcDbLine
 10
279.2011819174853
 20
236.8587425593901
 30
0.0
 11
279.2717127097686
 21
236.8587425593901
 31
0.0
  0
LINE
  5
218
330
1F
100
AcDbEntity
  8
0
  6
Continuous
 62
     7
100
AcDbLine
 10
279.0601203329185
 20
236.8587425593901
 30
0.0
 11
279.2011819174853
 21
236.8587425593901
 31
0.0
  0
LINE
  5
219
330
1F
100
AcDbEntity
  8
0
  6
Continuous
 62
     7
100
AcDbLine
 10
279.5891012750438
 20
236.6587425593901
 30
0.0
 11
279.6243666711856
 21
236.8587425593901
 31
0.0
  0
LINE
  5
21A
330
1F
100
AcDbEntity
  8
0
  6
Continuous
 62
     7
100
AcDbLine
 10
269.6719568425642
 20
239.1728761226536
 30
0.0
 11
269.4719568425642
 21
239.0693485046126
 31
0.0
  0
LINE
  5
21B
330
1F
100
AcDbEntity
  8
0
  6
Continuous
 62
     7
100
AcDbLine
 10
269.4719568425642
 20
239.0693485046126
 30
0.0
 11
269.4719568425642
 21
239.2764037406946
 31
0.0
  0
LINE
  5
21C
330
1F
100
AcDbEntity
  8
0
  6
Continuous
 62
     7
100
AcDbLine
 10
269.4719568425642
 20
236.9927171556056
 30
0.0
 11
269.4719568425642
 21
239.0693485046126
 31
0.0
  0
LINE
  5
21D
330
1F
100
AcDbEntity
  8
0
  6
Continuous
 62
     7
100
AcDbLine
 10
269.4719568425642
 20
239.2764037406946
 30
0.0
 11
269.6719568425642
 21
239.1728761226536
 31
0.0
  0
LINE
  5
21E
330
1F
100
AcDbEntity
  8
0
  6
Continuous
 62
     7
100
AcDbLine
 10
280.1533476133109
 20
235.3587425593901
 30
0.0
 11
280.1180822171693
 21
235.55874255939
 31
0.0
  0
LINE
  5
21F
330
1F
100
AcDbEntity
  8
0
  6
Continuous
 62
     7
100
AcDbLine
 10
279.9770206326025
 20
235.3587425593901
 30
0.0
 11
279.9417552364608
 21
235.55874255939
 31
0.0
  0
LINE
  5
220
330
1F
100
AcDbEntity
  8
0
  6
Continuous
 62
     7
100
AcDbLine
 10
279.800693651894
 20
235.3587425593901
 30
0.0
 11
279.7654282557523
 21
235.55874255939
 31
0.0
  0
LINE
  5
221
330
1F
100
AcDbEntity
  8
0
  6
Continuous
 62
     7
100
AcDbLine
 10
279.4480396904771
 20
235.3587425593901
 30
0.0
 11
279.4127742943354
 21
235.55874255939
 31
0.0
  0
LINE
  5
222
330
1F
100
AcDbEntity
  8
0
  6
Continuous
 62
     7
100
AcDbLine
 10
278.9719568425642
 20
234.8587425593901
 30
0.0
 11
276.4382645007192
 21
234.8587425593901
 31
0.0
  0
LINE
  5
223
330
1F
100
AcDbEntity
  8
0
  6
Continuous
 62
     7
100
AcDbLine
 10
269.6719568425642
 20
239.6905142128586
 30
0.0
 11
269.4719568425642
 21
239.5869865948176
 31
0.0
  0
LINE
  5
224
330
1F
100
AcDbEntity
  8
0
  6
Continuous
 62
     7
100
AcDbLine
 10
278.9719568425642
 20
234.8587425593901
 30
0.0
 11
278.9719568425642
 21
236.7952342324938
 31
0.0
  0
LINE
  5
225
330
1F
100
AcDbEntity
  8
0
  6
Continuous
 62
     7
100
AcDbLine
 10
279.2717127097686
 20
235.3587425593901
 30
0.0
 11
279.2364473136269
 21
235.55874255939
 31
0.0
  0
LINE
  5
226
330
1F
100
AcDbEntity
  8
0
  6
Continuous
 62
     7
100
AcDbLine
 10
269.4719568425642
 20
239.2764037406946
 30
0.0
 11
269.4719568425642
 21
239.5869865948176
 31
0.0
  0
LINE
  5
227
330
1F
100
AcDbEntity
  8
0
  6
Continuous
 62
     7
100
AcDbLine
 10
269.4719568425642
 20
239.5869865948176
 30
0.0
 11
269.4719568425642
 21
239.7940418308996
 31
0.0
  0
LINE
  5
228
330
1F
100
AcDbEntity
  8
0
  6
Continuous
 62
     7
100
AcDbLine
 10
348.2719568425642
 20
240.2081523030637
 30
0.0
 11
348.4719568425643
 21
240.1046246850226
 31
0.0
  0
LINE
  5
229
330
1F
100
AcDbEntity
  8
0
  6
Continuous
 62
     7
100
AcDbLine
 10
348.4719568425642
 20
240.3116799211047
 30
0.0
 11
348.2719568425642
 21
240.2081523030637
 31
0.0
  0
LINE
  5
22A
330
1F
100
AcDbEntity
  8
0
  6
Continuous
 62
     7
100
AcDbLine
 10
348.4719568425642
 20
240.3116799211047
 30
0.0
 11
348.4719568425643
 21
240.6222627752277
 31
0.0
  0
LINE
  5
22B
330
1F
100
AcDbEntity
  8
0
  6
Continuous
 62
     7
100
AcDbLine
 10
348.4719568425643
 20
240.1046246850226
 30
0.0
 11
348.4719568425642
 21
240.3116799211047
 31
0.0
  0
LINE
  5
22C
330
1F
100
AcDbEntity
  8
0
  6
Continuous
 62
     7
100
AcDbLine
 10
269.4719568425642
 20
240.3116799211047
 30
0.0
 11
269.4719568425642
 21
240.6222627752277
 31
0.0
  0
LINE
  5
22D
330
1F
100
AcDbEntity
  8
0
  6
Continuous
 62
     7
100
AcDbLine
 10
269.4719568425642
 20
240.1046246850226
 30
0.0
 11
269.4719568425642
 21
240.3116799211047
 31
0.0
  0
LINE
  5
22E
330
1F
100
AcDbEntity
  8
0
  6
Continuous
 62
     7
100
AcDbLine
 10
268.9719568425642
 20
240.6587425593901
 30
0.0
 11
267.9719568425642
 21
240.6587425593901
 31
0.0
  0
LINE
  5
22F
330
1F
100
AcDbEntity
  8
0
  6
Continuous
 62
     7
100
AcDbLine
 10
269.6719568425642
 20
240.2081523030637
 30
0.0
 11
269.4719568425642
 21
240.1046246850226
 31
0.0
  0
LINE
  5
230
330
1F
100
AcDbEntity
  8
0
  6
Continuous
 62
     7
100
AcDbLine
 10
269.4719568425642
 20
240.3116799211047
 30
0.0
 11
269.6719568425642
 21
240.2081523030637
 31
0.0
  0
LINE
  5
231
330
1F
100
AcDbEntity
  8
0
  6
Continuous
 62
     7
100
AcDbLine
 10
267.9719568425642
 20
240.6587425593901
 30
0.0
 11
267.9719568425642
 21
234.6587425593901
 31
0.0
  0
LINE
  5
232
330
1F
100
AcDbEntity
  8
0
  6
Continuous
 62
     7
100
AcDbLine
 10
348.4719568425643
 20
240.8293180113097
 30
0.0
 11
348.4719568425643
 21
241.1399008654327
 31
0.0
  0
LINE
  5
233
330
1F
100
AcDbEntity
  8
0
  6
Continuous
 62
     7
100
AcDbLine
 10
348.4719568425643
 20
241.1399008654327
 30
0.0
 11
348.4719568425642
 21
241.3469561015147
 31
0.0
  0
LINE
  5
234
330
1F
100
AcDbEntity
  8
0
  6
Continuous
 62
     7
100
AcDbLine
 10
348.2719568425642
 20
240.7257903932687
 30
0.0
 11
348.4719568425643
 21
240.6222627752277
 31
0.0
  0
LINE
  5
235
330
1F
100
AcDbEntity
  8
0
  6
Continuous
 62
     7
100
AcDbLine
 10
348.4719568425643
 20
240.8293180113097
 30
0.0
 11
348.2719568425642
 21
240.7257903932687
 31
0.0
  0
LINE
  5
236
330
1F
100
AcDbEntity
  8
0
  6
Continuous
 62
     7
100
AcDbLine
 10
348.4719568425643
 20
240.6222627752277
 30
0.0
 11
348.4719568425643
 21
240.8293180113097
 31
0.0
  0
LINE
  5
237
330
1F
100
AcDbEntity
  8
0
  6
Continuous
 62
     7
100
AcDbLine
 10
269.4719568425642
 20
240.6222627752277
 30
0.0
 11
269.4719568425642
 21
240.8293180113097
 31
0.0
  0
LINE
  5
238
330
1F
100
AcDbEntity
  8
0
  6
Continuous
 62
     7
100
AcDbLine
 10
269.4719568425642
 20
240.8293180113097
 30
0.0
 11
269.6719568425642
 21
240.7257903932687
 31
0.0
  0
LINE
  5
239
330
1F
100
AcDbEntity
  8
0
  6
Continuous
 62
     7
100
AcDbLine
 10
269.6719568425642
 20
240.7257903932687
 30
0.0
 11
269.4719568425642
 21
240.6222627752277
 31
0.0
  0
LINE
  5
23A
330
1F
100
AcDbEntity
  8
0
  6
Continuous
 62
     7
100
AcDbLine
 10
269.4719568425642
 20
240.8293180113097
 30
0.0
 11
269.4719568425642
 21
241.1399008654327
 31
0.0
  0
LINE
  5
23B
330
1F
100
AcDbEntity
  8
0
  6
Continuous
 62
     7
100
AcDbLine
 10
269.4719568425642
 20
241.1399008654327
 30
0.0
 11
269.4719568425642
 21
241.3469561015147
 31
0.0
  0
LINE
  5
23C
330
1F
100
AcDbEntity
  8
0
  6
Continuous
 62
     7
100
AcDbLine
 10
348.2719568425642
 20
241.2434284834738
 30
0.0
 11
348.4719568425643
 21
241.1399008654327
 31
0.0
  0
LINE
  5
23D
330
1F
100
AcDbEntity
  8
0
  6
Continuous
 62
     7
100
AcDbLine
 10
269.6719568425642
 20
241.2434284834738
 30
0.0
 11
269.4719568425642
 21
241.1399008654327
 31
0.0
  0
LINE
  5
23E
330
1F
100
AcDbEntity
  8
0
  6
Continuous
 62
     7
100
AcDbLine
 10
348.4719568425642
 20
241.3469561015147
 30
0.0
 11
348.2719568425642
 21
241.2434284834738
 31
0.0
  0
LINE
  5
23F
330
1F
100
AcDbEntity
  8
0
  6
Continuous
 62
     7
100
AcDbLine
 10
269.4719568425642
 20
241.3469561015147
 30
0.0
 11
269.6719568425642
 21
241.2434284834738
 31
0.0
  0
LINE
  5
240
330
1F
100
AcDbEntity
  8
0
  6
Continuous
 62
     7
100
AcDbLine
 10
348.4719568425642
 20
241.3469561015147
 30
0.0
 11
348.4719568425643
 21
242.1395046729232
 31
0.0
  0
LINE
  5
241
330
1F
100
AcDbEntity
  8
0
  6
Continuous
 62
     7
100
AcDbLine
 10
346.9719568425643
 20
236.9927171556056
 30
0.0
 11
346.9719568425643
 21
242.1395046729232
 31
0.0
  0
LINE
  5
242
330
1F
100
AcDbEntity
  8
0
  6
Continuous
 62
     7
100
AcDbLine
 10
269.4719568425642
 20
241.3469561015147
 30
0.0
 11
269.4719568425642
 21
242.1395046729232
 31
0.0
  0
LINE
  5
243
330
1F
100
AcDbEntity
  8
0
  6
Continuous
 62
     7
100
AcDbLine
 10
270.9719568425642
 20
236.9927171556056
 30
0.0
 11
270.9719568425642
 21
242.1395046729232
 31
0.0
  0
LINE
  5
244
330
1F
100
AcDbEntity
  8
0
  6
Continuous
 62
     7
100
AcDbLine
 10
348.4719568425643
 20
246.1587425593901
 30
0.0
 11
346.9719568425643
 21
246.1587425593901
 31
0.0
  0
LINE
  5
245
330
1F
100
AcDbEntity
  8
0
  6
Continuous
 62
     7
100
AcDbLine
 10
346.9719568425643
 20
242.1395046729232
 30
0.0
 11
346.9719568425643
 21
246.1587425593901
 31
0.0
  0
LINE
  5
246
330
1F
100
AcDbEntity
  8
0
  6
Continuous
 62
     7
100
AcDbLine
 10
348.4719568425643
 20
242.1395046729232
 30
0.0
 11
348.4719568425643
 21
246.1587425593901
 31
0.0
  0
LINE
  5
247
330
1F
100
AcDbEntity
  8
0
  6
Continuous
 62
     7
100
AcDbLine
 10
270.9719568425642
 20
242.1395046729232
 30
0.0
 11
270.9719568425642
 21
246.1587425593901
 31
0.0
  0
LINE
  5
248
330
1F
100
AcDbEntity
  8
0
  6
Continuous
 62
     7
100
AcDbLine
 10
269.4719568425642
 20
246.1587425593901
 30
0.0
 11
270.9719568425642
 21
246.1587425593901
 31
0.0
  0
LINE
  5
249
330
1F
100
AcDbEntity
  8
0
  6
Continuous
 62
     7
100
AcDbLine
 10
269.4719568425642
 20
242.1395046729232
 30
0.0
 11
269.4719568425642
 21
246.1587425593901
 31
0.0
  0
LINE
  5
24A
330
1F
100
AcDbEntity
  8
0
  6
Continuous
 62
     7
100
AcDbLine
 10
348.4719568425643
 20
211.1087425593901
 30
0.0
 11
346.9719568425643
 21
211.1087425593901
 31
0.0
  0
LINE
  5
24B
330
1F
100
AcDbEntity
  8
0
  6
Continuous
 62
     7
100
AcDbLine
 10
337.6432044351381
 20
219.323013188381
 30
0.0
 11
337.5314259320106
 21
218.6890857957699
 31
0.0
  0
LINE
  5
24C
330
1F
100
AcDbEntity
  8
0
  6
Continuous
 62
     7
100
AcDbLine
 10
335.6626514933468
 20
217.7956646890235
 30
0.0
 11
282.2812621917817
 21
217.7956646890235
 31
0.0
  0
LINE
  5
24D
330
1F
100
AcDbEntity
  8
0
  6
Continuous
 62
     2
100
AcDbLine
 10
335.6626514933468
 20
217.7956646890235
 30
0.0
 11
335.5508729902193
 21
217.1617372964125
 31
0.0
  0
LINE
  5
24E
330
1F
100
AcDbEntity
  8
0
  6
Continuous
 62
     7
100
AcDbLine
 10
348.4719568425643
 20
211.1087425593901
 30
0.0
 11
348.4719568425643
 21
222.1087425593901
 31
0.0
  0
LINE
  5
24F
330
1F
100
AcDbEntity
  8
0
  6
Continuous
 62
     7
100
AcDbLine
 10
269.4719568425642
 20
211.1087425593901
 30
0.0
 11
269.4719568425642
 21
222.1087425593901
 31
0.0
  0
LINE
  5
250
330
1F
100
AcDbEntity
  8
0
  6
Continuous
 62
     7
100
AcDbLine
 10
270.9719568425642
 20
211.1087425593901
 30
0.0
 11
270.9719568425642
 21
222.1087425593901
 31
0.0
  0
LINE
  5
251
330
1F
100
AcDbEntity
  8
0
  6
Continuous
 62
     7
100
AcDbLine
 10
346.9719568425643
 20
211.1087425593901
 30
0.0
 11
346.9719568425643
 21
222.1087425593901
 31
0.0
  0
LINE
  5
252
330
1F
100
AcDbEntity
  8
0
  6
Continuous
 62
     7
100
AcDbLine
 10
508.3054649775042
 20
236.6587425593901
 30
0.0
 11
508.5054649775043
 21
236.85874255939
 31
0.0
  0
LINE
  5
253
330
1F
100
AcDbEntity
  8
0
  6
Continuous
 62
     7
100
AcDbLine
 10
508.5054649775043
 20
235.35874255939
 30
0.0
 11
508.3054649775042
 21
235.55874255939
 31
0.0
  0
LINE
  5
254
330
1F
100
AcDbEntity
  8
0
  6
Continuous
 62
     7
100
AcDbLine
 10
508.3054649775042
 20
235.55874255939
 30
0.0
 11
508.1054649775043
 21
235.35874255939
 31
0.0
  0
LINE
  5
255
330
1F
100
AcDbEntity
  8
0
  6
Continuous
 62
     7
100
AcDbLine
 10
507.6527613328383
 20
235.35874255939
 30
0.0
 11
508.1054649775043
 21
235.35874255939
 31
0.0
  0
LINE
  5
256
330
1F
100
AcDbEntity
  8
0
  6
Continuous
 62
     7
100
AcDbLine
 10
504.1054649775043
 20
236.85874255939
 30
0.0
 11
504.3054649775042
 21
236.6587425593901
 31
0.0
  0
LINE
  5
257
330
1F
100
AcDbEntity
  8
0
  6
Continuous
 62
     7
100
AcDbLine
 10
504.3054649775042
 20
236.6587425593901
 30
0.0
 11
504.5054649775043
 21
236.85874255939
 31
0.0
  0
LINE
  5
258
330
1F
100
AcDbEntity
  8
0
  6
Continuous
 62
     7
100
AcDbLine
 10
501.1907991605885
 20
226.032390737057
 30
0.0
 11
504.3194332929894
 21
219.323013188381
 31
0.0
  0
LINE
  5
259
330
1F
100
AcDbEntity
  8
0
  6
Continuous
 62
     7
100
AcDbLine
 10
502.9599716124344
 20
218.6890857957699
 30
0.0
 11
499.5357322821449
 21
226.032390737057
 31
0.0
  0
LINE
  5
25A
330
1F
100
AcDbEntity
  8
0
  6
Continuous
 62
     7
100
AcDbLine
 10
500.8054649775042
 20
226.8587425593901
 30
0.0
 11
501.1907991605885
 21
226.032390737057
 31
0.0
  0
LINE
  5
25B
330
1F
100
AcDbEntity
  8
0
  6
Continuous
 62
     7
100
AcDbLine
 10
499.5357322821449
 20
226.032390737057
 30
0.0
 11
499.4460032969494
 21
226.224815166779
 31
0.0
  0
LINE
  5
25C
330
1F
100
AcDbEntity
  8
0
  6
Continuous
 62
     7
100
AcDbLine
 10
502.9599716124344
 20
218.6890857957699
 30
0.0
 11
503.6721859143563
 21
217.1617372964125
 31
0.0
  0
LINE
  5
25D
330
1F
100
AcDbEntity
  8
0
  6
Continuous
 62
     7
100
AcDbLine
 10
501.3054649775042
 20
236.85874255939
 30
0.0
 11
502.1054649775043
 21
236.85874255939
 31
0.0
  0
LINE
  5
25E
330
1F
100
AcDbEntity
  8
0
  6
Continuous
 62
     7
100
AcDbLine
 10
502.5054649775043
 20
236.85874255939
 30
0.0
 11
503.1054649775043
 21
236.85874255939
 31
0.0
  0
LINE
  5
25F
330
1F
100
AcDbEntity
  8
0
  6
Continuous
 62
     7
100
AcDbLine
 10
503.5054649775043
 20
236.85874255939
 30
0.0
 11
504.1054649775043
 21
236.85874255939
 31
0.0
  0
LINE
  5
260
330
1F
100
AcDbEntity
  8
0
  6
Continuous
 62
     7
100
AcDbLine
 10
506.5054649775043
 20
235.35874255939
 30
0.0
 11
506.3054649775042
 21
235.55874255939
 31
0.0
  0
LINE
  5
261
330
1F
100
AcDbEntity
  8
0
  6
Continuous
 62
     7
100
AcDbLine
 10
506.3054649775042
 20
235.55874255939
 30
0.0
 11
506.1054649775043
 21
235.3587425593901
 31
0.0
  0
LINE
  5
262
330
1F
100
AcDbEntity
  8
0
  6
Continuous
 62
     7
100
AcDbLine
 10
506.1054649775043
 20
236.85874255939
 30
0.0
 11
506.3054649775042
 21
236.6587425593901
 31
0.0
  0
LINE
  5
263
330
1F
100
AcDbEntity
  8
0
  6
Continuous
 62
     7
100
AcDbLine
 10
505.5054649775043
 20
235.35874255939
 30
0.0
 11
505.3054649775042
 21
235.55874255939
 31
0.0
  0
LINE
  5
264
330
1F
100
AcDbEntity
  8
0
  6
Continuous
 62
     7
100
AcDbLine
 10
505.3054649775042
 20
235.55874255939
 30
0.0
 11
505.1054649775043
 21
235.35874255939
 31
0.0
  0
LINE
  5
265
330
1F
100
AcDbEntity
  8
0
  6
Continuous
 62
     7
100
AcDbLine
 10
505.1054649775043
 20
236.85874255939
 30
0.0
 11
505.3054649775042
 21
236.6587425593901
 31
0.0
  0
LINE
  5
266
330
1F
100
AcDbEntity
  8
0
  6
Continuous
 62
     7
100
AcDbLine
 10
506.1054649775043
 20
235.3587425593901
 30
0.0
 11
505.5054649775043
 21
235.35874255939
 31
0.0
  0
LINE
  5
267
330
1F
100
AcDbEntity
  8
0
  6
Continuous
 62
     7
100
AcDbLine
 10
505.5054649775043
 20
236.85874255939
 30
0.0
 11
506.1054649775043
 21
236.85874255939
 31
0.0
  0
LINE
  5
268
330
1F
100
AcDbEntity
  8
0
  6
Continuous
 62
     7
100
AcDbLine
 10
504.1054649775043
 20
235.35874255939
 30
0.0
 11
503.5054649775043
 21
235.35874255939
 31
0.0
  0
LINE
  5
269
330
1F
100
AcDbEntity
  8
0
  6
Continuous
 62
     7
100
AcDbLine
 10
503.3054649775042
 20
235.55874255939
 30
0.0
 11
503.1054649775043
 21
235.3587425593901
 31
0.0
  0
LINE
  5
26A
330
1F
100
AcDbEntity
  8
0
  6
Continuous
 62
     7
100
AcDbLine
 10
503.3054649775042
 20
236.6587425593901
 30
0.0
 11
503.5054649775043
 21
236.85874255939
 31
0.0
  0
LINE
  5
26B
330
1F
100
AcDbEntity
  8
0
  6
Continuous
 62
     7
100
AcDbLine
 10
503.5054649775043
 20
235.35874255939
 30
0.0
 11
503.3054649775042
 21
235.55874255939
 31
0.0
  0
LINE
  5
26C
330
1F
100
AcDbEntity
  8
0
  6
Continuous
 62
     7
100
AcDbLine
 10
504.3054649775042
 20
235.5587425593901
 30
0.0
 11
504.1054649775043
 21
235.35874255939
 31
0.0
  0
LINE
  5
26D
330
1F
100
AcDbEntity
  8
0
  6
Continuous
 62
     7
100
AcDbLine
 10
504.5054649775043
 20
236.85874255939
 30
0.0
 11
505.1054649775043
 21
236.85874255939
 31
0.0
  0
LINE
  5
26E
330
1F
100
AcDbEntity
  8
0
  6
Continuous
 62
     7
100
AcDbLine
 10
504.5054649775043
 20
235.35874255939
 30
0.0
 11
504.3054649775042
 21
235.5587425593901
 31
0.0
  0
LINE
  5
26F
330
1F
100
AcDbEntity
  8
0
  6
Continuous
 62
     7
100
AcDbLine
 10
505.1054649775043
 20
235.35874255939
 30
0.0
 11
504.5054649775043
 21
235.35874255939
 31
0.0
  0
LINE
  5
270
330
1F
100
AcDbEntity
  8
0
  6
Continuous
 62
     7
100
AcDbLine
 10
507.1054649775043
 20
235.35874255939
 30
0.0
 11
506.5054649775043
 21
235.35874255939
 31
0.0
  0
LINE
  5
271
330
1F
100
AcDbEntity
  8
0
  6
Continuous
 62
     7
100
AcDbLine
 10
506.5054649775043
 20
236.85874255939
 30
0.0
 11
507.1054649775043
 21
236.85874255939
 31
0.0
  0
LINE
  5
272
330
1F
100
AcDbEntity
  8
0
  6
Continuous
 62
     7
100
AcDbLine
 10
502.3054649775042
 20
235.55874255939
 30
0.0
 11
502.1054649775043
 21
235.35874255939
 31
0.0
  0
LINE
  5
273
330
1F
100
AcDbEntity
  8
0
  6
Continuous
 62
     7
100
AcDbLine
 10
502.1054649775043
 20
236.85874255939
 30
0.0
 11
502.3054649775042
 21
236.6587425593901
 31
0.0
  0
LINE
  5
274
330
1F
100
AcDbEntity
  8
0
  6
Continuous
 62
     7
100
AcDbLine
 10
502.3054649775042
 20
236.6587425593901
 30
0.0
 11
502.5054649775043
 21
236.85874255939
 31
0.0
  0
LINE
  5
275
330
1F
100
AcDbEntity
  8
0
  6
Continuous
 62
     7
100
AcDbLine
 10
503.1054649775043
 20
236.85874255939
 30
0.0
 11
503.3054649775042
 21
236.6587425593901
 31
0.0
  0
LINE
  5
276
330
1F
100
AcDbEntity
  8
0
  6
Continuous
 62
     7
100
AcDbLine
 10
502.1054649775043
 20
235.35874255939
 30
0.0
 11
501.3054649775042
 21
235.35874255939
 31
0.0
  0
LINE
  5
277
330
1F
100
AcDbEntity
  8
0
  6
Continuous
 62
     7
100
AcDbLine
 10
502.5054649775043
 20
235.35874255939
 30
0.0
 11
502.3054649775042
 21
235.55874255939
 31
0.0
  0
LINE
  5
278
330
1F
100
AcDbEntity
  8
0
  6
Continuous
 62
     7
100
AcDbLine
 10
503.1054649775043
 20
235.3587425593901
 30
0.0
 11
502.5054649775043
 21
235.35874255939
 31
0.0
  0
LINE
  5
279
330
1F
100
AcDbEntity
  8
0
  6
Continuous
 62
     7
100
AcDbLine
 10
507.5054649775043
 20
235.35874255939
 30
0.0
 11
507.3054649775042
 21
235.55874255939
 31
0.0
  0
LINE
  5
27A
330
1F
100
AcDbEntity
  8
0
  6
Continuous
 62
     7
100
AcDbLine
 10
507.3054649775042
 20
235.55874255939
 30
0.0
 11
507.1054649775043
 21
235.35874255939
 31
0.0
  0
LINE
  5
27B
330
1F
100
AcDbEntity
  8
0
  6
Continuous
 62
     7
100
AcDbLine
 10
507.1054649775043
 20
236.85874255939
 30
0.0
 11
507.3054649775042
 21
236.6587425593901
 31
0.0
  0
LINE
  5
27C
330
1F
100
AcDbEntity
  8
0
  6
Continuous
 62
     7
100
AcDbLine
 10
507.5054649775043
 20
236.8587425593901
 30
0.0
 11
507.6527613328383
 21
236.85874255939
 31
0.0
  0
LINE
  5
27D
330
1F
100
AcDbEntity
  8
0
  6
Continuous
 62
     7
100
AcDbLine
 10
507.6527613328383
 20
235.35874255939
 30
0.0
 11
507.5054649775043
 21
235.35874255939
 31
0.0
  0
LINE
  5
27E
330
1F
100
AcDbEntity
  8
0
  6
Continuous
 62
     7
100
AcDbLine
 10
507.3054649775042
 20
236.6587425593901
 30
0.0
 11
507.5054649775043
 21
236.8587425593901
 31
0.0
  0
LINE
  5
27F
330
1F
100
AcDbEntity
  8
0
  6
Continuous
 62
     7
100
AcDbLine
 10
505.3054649775042
 20
236.6587425593901
 30
0.0
 11
505.5054649775043
 21
236.85874255939
 31
0.0
  0
LINE
  5
280
330
1F
100
AcDbEntity
  8
0
  6
Continuous
 62
     7
100
AcDbLine
 10
506.3054649775042
 20
236.6587425593901
 30
0.0
 11
506.5054649775043
 21
236.85874255939
 31
0.0
  0
LINE
  5
281
330
1F
100
AcDbEntity
  8
0
  6
Continuous
 62
     7
100
AcDbLine
 10
507.6527613328383
 20
236.85874255939
 30
0.0
 11
508.1054649775043
 21
236.85874255939
 31
0.0
  0
LINE
  5
282
330
1F
100
AcDbEntity
  8
0
  6
Continuous
 62
     7
100
AcDbLine
 10
508.1054649775043
 20
236.85874255939
 30
0.0
 11
508.3054649775042
 21
236.6587425593901
 31
0.0
  0
LINE
  5
283
330
1F
100
AcDbEntity
  8
0
  6
Continuous
 62
     7
100
AcDbLine
 10
508.5054649775043
 20
235.35874255939
 30
0.0
 11
509.3054649775042
 21
235.35874255939
 31
0.0
  0
LINE
  5
284
330
1F
100
AcDbEntity
  8
0
  6
Continuous
 62
     7
100
AcDbLine
 10
508.5054649775043
 20
236.85874255939
 30
0.0
 11
509.3054649775042
 21
236.85874255939
 31
0.0
  0
LINE
  5
285
330
1F
100
AcDbEntity
  8
0
  6
Continuous
 62
     7
100
AcDbLine
 10
509.3054649775042
 20
236.85874255939
 30
0.0
 11
509.3054649775042
 21
235.35874255939
 31
0.0
  0
LINE
  5
286
330
1F
100
AcDbEntity
  8
0
  6
Continuous
 62
     7
100
AcDbLine
 10
489.5316510873257
 20
241.3469561015147
 30
0.0
 11
488.1589166941801
 21
242.1395046729232
 31
0.0
  0
LINE
  5
287
330
1F
100
AcDbEntity
  8
0
  6
Continuous
 62
     7
100
AcDbLine
 10
492.5800076926971
 20
239.5869865948176
 30
0.0
 11
492.4006925982634
 21
239.6905142128586
 31
0.0
  0
LINE
  5
288
330
1F
100
AcDbEntity
  8
0
  6
Continuous
 62
     7
100
AcDbLine
 10
491.3248020316619
 20
240.3116799211047
 30
0.0
 11
490.7868567483611
 21
240.6222627752277
 31
0.0
  0
LINE
  5
289
330
1F
100
AcDbEntity
  8
0
  6
Continuous
 62
     7
100
AcDbLine
 10
490.6075416539272
 20
240.7257903932687
 30
0.0
 11
490.4282265594936
 21
240.8293180113097
 31
0.0
  0
LINE
  5
28A
330
1F
100
AcDbEntity
  8
0
  6
Continuous
 62
     7
100
AcDbLine
 10
490.7868567483611
 20
240.6222627752277
 30
0.0
 11
490.6075416539272
 21
240.7257903932687
 31
0.0
  0
LINE
  5
28B
330
1F
100
AcDbEntity
  8
0
  6
Continuous
 62
     7
100
AcDbLine
 10
492.2213775038299
 20
239.7940418308996
 30
0.0
 11
491.6834322205291
 21
240.1046246850226
 31
0.0
  0
LINE
  5
28C
330
1F
100
AcDbEntity
  8
0
  6
Continuous
 62
     7
100
AcDbLine
 10
492.4006925982634
 20
239.6905142128586
 30
0.0
 11
492.2213775038299
 21
239.7940418308996
 31
0.0
  0
LINE
  5
28D
330
1F
100
AcDbEntity
  8
0
  6
Continuous
 62
     7
100
AcDbLine
 10
491.6834322205291
 20
240.1046246850226
 30
0.0
 11
491.5041171260955
 21
240.2081523030637
 31
0.0
  0
LINE
  5
28E
330
1F
100
AcDbEntity
  8
0
  6
Continuous
 62
     7
100
AcDbLine
 10
491.5041171260955
 20
240.2081523030637
 30
0.0
 11
491.3248020316619
 21
240.3116799211047
 31
0.0
  0
LINE
  5
28F
330
1F
100
AcDbEntity
  8
0
  6
Continuous
 62
     7
100
AcDbLine
 10
490.4282265594936
 20
240.8293180113097
 30
0.0
 11
489.8902812761928
 21
241.1399008654327
 31
0.0
  0
LINE
  5
290
330
1F
100
AcDbEntity
  8
0
  6
Continuous
 62
     7
100
AcDbLine
 10
489.8902812761928
 20
241.1399008654327
 30
0.0
 11
489.7109661817592
 21
241.2434284834737
 31
0.0
  0
LINE
  5
291
330
1F
100
AcDbEntity
  8
0
  6
Continuous
 62
     7
100
AcDbLine
 10
489.7109661817592
 20
241.2434284834737
 30
0.0
 11
489.5316510873257
 21
241.3469561015147
 31
0.0
  0
LINE
  5
292
330
1F
100
AcDbEntity
  8
0
  6
Continuous
 62
     7
100
AcDbLine
 10
493.1179529759979
 20
239.2764037406946
 30
0.0
 11
492.5800076926971
 21
239.5869865948176
 31
0.0
  0
LINE
  5
293
330
1F
100
AcDbEntity
  8
0
  6
Continuous
 62
     7
100
AcDbLine
 10
493.4765831648651
 20
239.0693485046126
 30
0.0
 11
493.2972680704315
 21
239.1728761226536
 31
0.0
  0
LINE
  5
294
330
1F
100
AcDbEntity
  8
0
  6
Continuous
 62
     7
100
AcDbLine
 10
493.2972680704315
 20
239.1728761226536
 30
0.0
 11
493.1179529759979
 21
239.2764037406946
 31
0.0
  0
LINE
  5
295
330
1F
100
AcDbEntity
  8
0
  6
Continuous
 62
     7
100
AcDbLine
 10
497.0734141699354
 20
236.9927171556056
 30
0.0
 11
493.4765831648651
 21
239.0693485046126
 31
0.0
  0
LINE
  5
296
330
1F
100
AcDbEntity
  8
0
  6
Continuous
 62
     7
100
AcDbLine
 10
497.3054649775042
 20
226.8587425593901
 30
0.0
 11
495.2629780881503
 21
226.8587425593901
 31
0.0
  0
LINE
  5
297
330
1F
100
AcDbEntity
  8
0
  6
Continuous
 62
     7
100
AcDbLine
 10
497.3054649775042
 20
226.8587425593901
 30
0.0
 11
499.3054649775042
 21
226.8587425593901
 31
0.0
  0
LINE
  5
298
330
1F
100
AcDbEntity
  8
0
  6
Continuous
 62
     7
100
AcDbLine
 10
500.8054649775042
 20
226.8587425593901
 30
0.0
 11
499.3054649775042
 21
226.8587425593901
 31
0.0
  0
LINE
  5
299
330
1F
100
AcDbEntity
  8
0
  6
Continuous
 62
     7
100
AcDbLine
 10
500.8054649775042
 20
236.7952342324938
 30
0.0
 11
500.8054649775042
 21
236.8587425593901
 31
0.0
  0
LINE
  5
29A
330
1F
100
AcDbEntity
  8
0
  6
Continuous
 62
     7
100
AcDbLine
 10
500.8054649775042
 20
236.8587425593901
 30
0.0
 11
497.5734141699354
 21
236.85874255939
 31
0.0
  0
LINE
  5
29B
330
1F
100
AcDbEntity
  8
0
  6
Continuous
 62
     7
100
AcDbLine
 10
500.8054649775042
 20
226.8587425593901
 30
0.0
 11
500.8054649775042
 21
234.8587425593901
 31
0.0
  0
LINE
  5
29C
330
1F
100
AcDbEntity
  8
0
  6
Continuous
 62
     7
100
AcDbLine
 10
500.8054649775042
 20
236.7952342324938
 30
0.0
 11
500.8054649775042
 21
234.8587425593901
 31
0.0
  0
LINE
  5
29D
330
1F
100
AcDbEntity
  8
0
  6
Continuous
 62
     7
100
AcDbLine
 10
505.0316475949113
 20
217.7956646890235
 30
0.0
 11
504.3194332929894
 21
219.323013188381
 31
0.0
  0
LINE
  5
29E
330
1F
100
AcDbEntity
  8
0
  6
Continuous
 62
     7
100
AcDbLine
 10
505.0316475949113
 20
217.7956646890235
 30
0.0
 11
503.6721859143563
 21
217.1617372964125
 31
0.0
  0
LINE
  5
29F
330
1F
100
AcDbEntity
  8
0
  6
Continuous
 62
     7
100
AcDbLine
 10
477.1054649775043
 20
233.1587425593901
 30
0.0
 11
477.1054649775043
 21
234.6587425593901
 31
0.0
  0
LINE
  5
2A0
330
1F
100
AcDbEntity
  8
0
  6
Continuous
 62
     7
100
AcDbLine
 10
475.6054649775043
 20
233.1587425593901
 30
0.0
 11
475.6054649775043
 21
234.6587425593901
 31
0.0
  0
LINE
  5
2A1
330
1F
100
AcDbEntity
  8
0
  6
Continuous
 62
     7
100
AcDbLine
 10
463.6413633623665
 20
240.1587425593901
 30
0.0
 11
465.6054649775043
 21
240.1587425593901
 31
0.0
  0
LINE
  5
2A2
330
1F
100
AcDbEntity
  8
0
  6
Continuous
 62
     7
100
AcDbLine
 10
477.9442997423362
 20
232.3051891687968
 30
0.0
 11
474.8983581963178
 21
229.2592476227784
 31
0.0
  0
LINE
  5
2A3
330
1F
100
AcDbEntity
  8
0
  6
Continuous
 62
     7
100
AcDbLine
 10
475.6054649775043
 20
233.1587425593901
 30
0.0
 11
477.1054649775043
 21
233.1587425593901
 31
0.0
  0
LINE
  5
2A4
330
1F
100
AcDbEntity
  8
0
  6
Continuous
 62
     7
100
AcDbLine
 10
477.1054649775043
 20
233.1587425593901
 30
0.0
 11
477.5907463517428
 21
233.1587425593901
 31
0.0
  0
LINE
  5
2A5
330
1F
100
AcDbEntity
  8
0
  6
Continuous
 62
     7
100
AcDbLine
 10
474.6054649775043
 20
227.3491820287525
 30
0.0
 11
474.6054649775043
 21
228.5521408415919
 31
0.0
  0
LINE
  5
2A6
330
1F
100
AcDbEntity
  8
0
  6
Continuous
 62
     7
100
AcDbLine
 10
473.1589166941801
 20
246.1587425593901
 30
0.0
 11
467.1054649775043
 21
246.1587425593901
 31
0.0
  0
LINE
  5
2A7
330
1F
100
AcDbEntity
  8
0
  6
Continuous
 62
     7
100
AcDbLine
 10
482.1054649775043
 20
222.1087425593901
 30
0.0
 11
482.1054649775043
 21
224.7384323426071
 31
0.0
  0
LINE
  5
2A8
330
1F
100
AcDbEntity
  8
0
  6
Continuous
 62
     7
100
AcDbLine
 10
489.0197365117476
 20
232.0669174392236
 30
0.0
 11
482.3983581963178
 21
225.4455391237936
 31
0.0
  0
LINE
  5
2A9
330
1F
100
AcDbEntity
  8
0
  6
Continuous
 62
     7
100
AcDbLine
 10
499.1054649775043
 20
207.35874255939
 30
0.0
 11
502.6054649775043
 21
207.35874255939
 31
0.0
  0
LINE
  5
2AA
330
1F
100
AcDbEntity
  8
0
  6
Continuous
 62
     7
100
AcDbLine
 10
499.1054649775043
 20
208.85874255939
 30
0.0
 11
499.1054649775043
 21
207.35874255939
 31
0.0
  0
LINE
  5
2AB
330
1F
100
AcDbEntity
  8
0
  6
Continuous
 62
     7
100
AcDbLine
 10
499.1054649775043
 20
208.85874255939
 30
0.0
 11
502.6054649775043
 21
208.85874255939
 31
0.0
  0
LINE
  5
2AC
330
1F
100
AcDbEntity
  8
0
  6
Continuous
 62
     7
100
AcDbLine
 10
502.6054649775043
 20
207.35874255939
 30
0.0
 11
502.6054649775043
 21
208.85874255939
 31
0.0
  0
LINE
  5
2AD
330
1F
100
AcDbEntity
  8
0
  6
Continuous
 62
     7
100
AcDbLine
 10
499.1054649775043
 20
210.35874255939
 30
0.0
 11
499.1054649775043
 21
212.85874255939
 31
0.0
  0
LINE
  5
2AE
330
1F
100
AcDbEntity
  8
0
  6
Continuous
 62
     7
100
AcDbLine
 10
499.1054649775043
 20
210.35874255939
 30
0.0
 11
499.1054649775043
 21
208.85874255939
 31
0.0
  0
LINE
  5
2AF
330
1F
100
AcDbEntity
  8
0
  6
Continuous
 62
     7
100
AcDbLine
 10
492.1054649775043
 20
210.35874255939
 30
0.0
 11
492.1054649775043
 21
212.8587425593901
 31
0.0
  0
LINE
  5
2B0
330
1F
100
AcDbEntity
  8
0
  6
Continuous
 62
     7
100
AcDbLine
 10
497.4526893397723
 20
207.35874255939
 30
0.0
 11
499.1054649775043
 21
207.35874255939
 31
0.0
  0
LINE
  5
2B1
330
1F
100
AcDbEntity
  8
0
  6
Continuous
 62
     7
100
AcDbLine
 10
494.9054649775044
 20
207.35874255939
 30
0.0
 11
497.4526893397723
 21
207.35874255939
 31
0.0
  0
LINE
  5
2B2
330
1F
100
AcDbEntity
  8
0
  6
Continuous
 62
     7
100
AcDbLine
 10
494.4054649775044
 20
206.85874255939
 30
0.0
 11
494.4054649775044
 21
205.8587425593901
 31
0.0
  0
LINE
  5
2B3
330
1F
100
AcDbEntity
  8
0
  6
Continuous
 62
     7
100
AcDbLine
 10
492.9283836786763
 20
205.8587425593901
 30
0.0
 11
494.4054649775044
 21
205.8587425593901
 31
0.0
  0
LINE
  5
2B4
330
1F
100
AcDbEntity
  8
0
  6
Continuous
 62
     7
100
AcDbLine
 10
467.7688097679386
 20
211.4510195379589
 30
0.0
 11
479.6156490688843
 21
223.2978588389046
 31
0.0
  0
LINE
  5
2B5
330
1F
100
AcDbEntity
  8
0
  6
Continuous
 62
     7
100
AcDbLine
 10
468.9841446339447
 20
207.0095001544726
 30
0.0
 11
482.8333870388622
 21
220.8587425593901
 31
0.0
  0
LINE
  5
2B6
330
1F
100
AcDbEntity
  8
0
  6
Continuous
 62
     7
100
AcDbLine
 10
470.6865567333591
 20
210.1261258162603
 30
0.0
 11
481.5406664346829
 21
220.9802355175839
 31
0.0
  0
LINE
  5
2B7
330
1F
100
AcDbEntity
  8
0
  6
Continuous
 62
     7
100
AcDbLine
 10
469.3964856815869
 20
211.6644818892342
 30
0.0
 11
480.2660187147121
 21
222.5340149223594
 31
0.0
  0
LINE
  5
2B8
330
1F
100
AcDbEntity
  8
0
  6
Continuous
 62
     7
100
AcDbLine
 10
470.245007371374
 20
211.0987900166481
 30
0.0
 11
480.8806821534752
 21
221.7344647987493
 31
0.0
  0
LINE
  5
2B9
330
1F
100
AcDbEntity
  8
0
  6
Continuous
 62
     7
100
AcDbLine
 10
467.7901400045334
 20
207.2297090874345
 30
0.0
 11
468.5380817206342
 21
207.9776508035351
 31
0.0
  0
LINE
  5
2BA
330
1F
100
AcDbEntity
  8
0
  6
Continuous
 62
     7
100
AcDbLine
 10
466.6743809261634
 20
207.5281635714374
 30
0.0
 11
467.5654175202462
 21
208.4192001655204
 31
0.0
  0
LINE
  5
2BB
330
1F
100
AcDbEntity
  8
0
  6
Continuous
 62
     7
100
AcDbLine
 10
482.0183958324565
 20
220.8587425593901
 30
0.0
 11
482.5505443263876
 21
220.8587425593901
 31
0.0
  0
LINE
  5
2BC
330
1F
100
AcDbEntity
  8
0
  6
Continuous
 62
     7
100
AcDbLine
 10
464.6054649775043
 20
209.3188063554056
 30
0.0
 11
464.6054649775043
 21
221.8587425593901
 31
0.0
  0
LINE
  5
2BD
330
1F
100
AcDbEntity
  8
0
  6
Continuous
 62
     7
100
AcDbLine
 10
464.8366031098708
 20
208.5188128798912
 30
0.0
 11
467.2131879989354
 21
210.8953977689558
 31
0.0
  0
LINE
  5
2BE
330
1F
100
AcDbEntity
  8
0
  6
Continuous
 62
     7
100
AcDbLine
 10
465.6269946170119
 20
207.894990824659
 30
0.0
 11
466.9997256476602
 21
209.2677218553074
 31
0.0
  0
LINE
  5
2BF
330
1F
100
AcDbEntity
  8
0
  6
Continuous
 62
     7
100
AcDbLine
 10
492.1054649775043
 20
210.35874255939
 30
0.0
 11
492.1054649775043
 21
207.35874255939
 31
0.0
  0
LINE
  5
2C0
330
1F
100
AcDbEntity
  8
0
  6
Continuous
 62
     7
100
AcDbLine
 10
482.8333870388622
 20
220.8587425593901
 30
0.0
 11
482.5505443263876
 21
220.8587425593901
 31
0.0
  0
LINE
  5
2C1
330
1F
100
AcDbEntity
  8
0
  6
Continuous
 62
     7
100
AcDbLine
 10
483.1162297513367
 20
220.8587425593901
 30
0.0
 11
491.1054649775043
 21
220.8587425593901
 31
0.0
  0
LINE
  5
2C2
330
1F
100
AcDbEntity
  8
0
  6
Continuous
 62
     7
100
AcDbLine
 10
484.3342215328272
 20
213.8587425593901
 30
0.0
 11
491.1054649775043
 21
213.8587425593901
 31
0.0
  0
LINE
  5
2C3
330
1F
100
AcDbEntity
  8
0
  6
Continuous
 62
     7
100
AcDbLine
 10
483.1162297513367
 20
220.8587425593901
 30
0.0
 11
482.8333870388622
 21
220.8587425593901
 31
0.0
  0
LINE
  5
2C4
330
1F
100
AcDbEntity
  8
0
  6
Continuous
 62
     7
100
AcDbLine
 10
492.9689733044006
 20
207.35874255939
 30
0.0
 11
494.9054649775044
 21
207.35874255939
 31
0.0
  0
LINE
  5
2C5
330
1F
100
AcDbEntity
  8
0
  6
Continuous
 62
     7
100
AcDbLine
 10
492.1054649775043
 20
207.35874255939
 30
0.0
 11
492.9689733044006
 21
207.35874255939
 31
0.0
  0
LINE
  5
2C6
330
1F
100
AcDbEntity
  8
1
  6
Continuous
 62
     7
100
AcDbLine
 10
470.5511740025139
 20
210.60874255939
 30
0.0
 11
467.0597559524947
 21
210.60874255939
 31
0.0
  0
LINE
  5
2C7
330
1F
100
AcDbEntity
  8
1
  6
Continuous
 62
     7
100
AcDbLine
 10
467.0597559524947
 20
210.60874255939
 30
0.0
 11
467.0597559524947
 21
209.10874255939
 31
0.0
  0
LINE
  5
2C8
330
1F
100
AcDbEntity
  8
1
  6
Continuous
 62
     7
100
AcDbLine
 10
467.0597559524947
 20
209.10874255939
 30
0.0
 11
470.5511740025139
 21
209.10874255939
 31
0.0
  0
LINE
  5
2C9
330
1F
100
AcDbEntity
  8
1
  6
Continuous
 62
     7
100
AcDbLine
 10
470.5511740025139
 20
209.10874255939
 30
0.0
 11
470.5511740025139
 21
210.60874255939
 31
0.0
  0
LINE
  5
2CA
330
1F
100
AcDbEntity
  8
1
  6
DOT_CENTER
 62
     2
100
AcDbLine
 10
262.9052396922718
 20
221.8587425593901
 30
0.0
 11
270.2052396922718
 21
221.8587425593901
 31
0.0
  0
LINE
  5
2CB
330
1F
100
AcDbEntity
  8
1
  6
DOT_CENTER
 62
     2
100
AcDbLine
 10
347.7011710622087
 20
221.8587425593901
 30
0.0
 11
354.6011710622087
 21
221.8587425593901
 31
0.0
  0
LINE
  5
2CC
330
1F
100
AcDbEntity
  8
1
  6
Continuous
 62
     2
100
AcDbLine
 10
517.4804071962681
 20
209.85874255939
 30
0.0
 11
517.4804071962681
 21
201.2788160528354
 31
0.0
  0
LINE
  5
2CD
330
1F
100
AcDbEntity
  8
DISEGNO
  6
Continuous
 62
     7
100
AcDbLine
 10
494.0054043616201
 20
233.1587424808586
 30
0.0
 11
492.2054043616201
 21
233.1587425593896
 31
0.0
  0
LINE
  5
2CE
330
1F
100
AcDbEntity
  8
DISEGNO
  6
Continuous
 62
     7
100
AcDbLine
 10
494.0054043616201
 20
233.1587424808586
 30
0.0
 11
493.1054043616201
 21
231.6587425201241
 31
0.0
  0
LINE
  5
2CF
330
1F
100
AcDbEntity
  8
DISEGNO
  6
Continuous
 62
     7
100
AcDbLine
 10
492.2054043616201
 20
233.1587425593896
 30
0.0
 11
493.1054043616201
 21
231.6587425201241
 31
0.0
  0
LINE
  5
2D0
330
1F
100
AcDbEntity
  8
DISEGNO
  6
Continuous
 62
     7
100
AcDbLine
 10
474.1054649775041
 20
243.2587423113791
 30
0.0
 11
475.6054649382392
 21
242.3587423113792
 31
0.0
  0
LINE
  5
2D1
330
1F
100
AcDbEntity
  8
DISEGNO
  6
Continuous
 62
     7
100
AcDbLine
 10
475.6054649382392
 20
242.3587423113792
 30
0.0
 11
475.6054650167702
 21
244.1587423113791
 31
0.0
  0
LINE
  5
2D2
330
1F
100
AcDbEntity
  8
DISEGNO
  6
Continuous
 62
     7
100
AcDbLine
 10
474.1054649775041
 20
243.2587423113791
 30
0.0
 11
475.6054650167702
 21
244.1587423113791
 31
0.0
  0
ARC
  5
2D3
330
1F
100
AcDbEntity
  8
0
  6
Continuous
 62
     7
100
AcDbCircle
 10
346.7601177419238
 20
207.8587425593901
 30
0.0
 40
1.000000000000082
100
AcDbArc
 50
209.9999999999972
 51
270.0000011125236
  0
ARC
  5
2D4
330
1F
100
AcDbEntity
  8
0
  6
Continuous
 62
     7
100
AcDbCircle
 10
354.9107879512935
 20
206.3587425593901
 30
0.0
 40
0.5000000000000058
100
AcDbArc
 50
0.99999999999525
 51
90.0
  0
ARC
  5
2D5
330
1F
100
AcDbEntity
  8
0
  6
Continuous
 62
     7
100
AcDbCircle
 10
263.0331257338349
 20
206.3587425593901
 30
0.0
 40
0.5
100
AcDbArc
 50
90.0
 51
179.0000000000047
  0
ARC
  5
2D6
330
1F
100
AcDbEntity
  8
0
  6
Continuous
 62
     7
100
AcDbCircle
 10
271.1837959321696
 20
207.8587425642872
 30
0.0
 40
1.000000004897117
100
AcDbArc
 50
269.9999995197491
 51
329.9999998380053
  0
ARC
  5
2D7
330
1F
100
AcDbEntity
  8
0
  6
Continuous
 62
     7
100
AcDbCircle
 10
265.4283191802437
 20
217.8587425593901
 30
0.0
 40
0.5
100
AcDbArc
 50
180.0
 51
270.0
  0
ARC
  5
2D8
330
1F
100
AcDbEntity
  8
0
  6
Continuous
 62
     7
100
AcDbCircle
 10
265.4283191802437
 20
225.8587425593901
 30
0.0
 40
0.5
100
AcDbArc
 50
90.0
 51
180.0
  0
ARC
  5
2D9
330
1F
100
AcDbEntity
  8
0
  6
Continuous
 62
     7
100
AcDbCircle
 10
352.5155945048848
 20
217.8587425593901
 30
0.0
 40
0.5
100
AcDbArc
 50
270.0
 51
0.0
  0
ARC
  5
2DA
330
1F
100
AcDbEntity
  8
0
  6
Continuous
 62
     7
100
AcDbCircle
 10
352.5155945048848
 20
225.8587425593901
 30
0.0
 40
0.5
100
AcDbArc
 50
0.0
 51
90.0
  0
ARC
  5
2DB
330
1F
100
AcDbEntity
  8
0
  6
Continuous
 62
     7
100
AcDbCircle
 10
492.419579964896
 20
206.3587425658704
 30
0.0
 40
0.4999999935197804
100
AcDbArc
 50
48.91708894706355
 51
89.9999980182162
  0
ARC
  5
2DC
330
1F
100
AcDbEntity
  8
0
  6
Continuous
 62
     7
100
AcDbCircle
 10
449.7913499660845
 20
206.3587425449221
 30
0.0
 40
0.4999999935196827
100
AcDbArc
 50
131.0829074032984
 51
178.9999983288813
  0
ARC
  5
2DD
330
1F
100
AcDbEntity
  8
0
  6
Continuous
 62
     7
100
AcDbCircle
 10
492.4195799889242
 20
206.358742544922
 30
0.0
 40
0.4999999935195792
100
AcDbArc
 50
1.00000167113208
 51
48.91709259998422
  0
ARC
  5
2DE
330
1F
100
AcDbEntity
  8
0
  6
Continuous
 62
     7
100
AcDbCircle
 10
449.7913499901124
 20
206.3587425658704
 30
0.0
 40
0.4999999935196232
100
AcDbArc
 50
90.00000198175773
 51
131.082911056181
  0
ARC
  5
2DF
330
1F
100
AcDbEntity
  8
0
  6
Continuous
 62
     7
100
AcDbCircle
 10
270.4719568425643
 20
210.3587425593901
 30
0.0
 40
3.0
100
AcDbArc
 50
180.0
 51
270.0
  0
ARC
  5
2E0
330
1F
100
AcDbEntity
  8
0
  6
Continuous
 62
     7
100
AcDbCircle
 10
279.4719568425643
 20
206.8587425593901
 30
0.0
 40
1.0
100
AcDbArc
 50
180.0
 51
270.0
  0
ARC
  5
2E1
330
1F
100
AcDbEntity
  8
0
  6
Continuous
 62
     7
100
AcDbCircle
 10
279.7948568425642
 20
210.3587425593901
 30
0.0
 40
3.500000000000001
100
AcDbArc
 50
238.9972808661259
 51
270.0
  0
ARC
  5
2E2
330
1F
100
AcDbEntity
  8
0
  6
Continuous
 62
     7
100
AcDbCircle
 10
312.2219568425643
 20
206.8587425593901
 30
0.0
 40
1.0
100
AcDbArc
 50
180.0
 51
270.0
  0
ARC
  5
2E3
330
1F
100
AcDbEntity
  8
0
  6
Continuous
 62
     7
100
AcDbCircle
 10
305.7219568425643
 20
206.8587425593901
 30
0.0
 40
1.0
100
AcDbArc
 50
270.0
 51
0.0
  0
ARC
  5
2E4
330
1F
100
AcDbEntity
  8
0
  6
Continuous
 62
     7
100
AcDbCircle
 10
350.9719568425643
 20
218.3587425593901
 30
0.0
 40
0.5
100
AcDbArc
 50
90.0
 51
180.0
  0
ARC
  5
2E5
330
1F
100
AcDbEntity
  8
0
  6
Continuous
 62
     7
100
AcDbCircle
 10
350.9719568425643
 20
225.3587425593901
 30
0.0
 40
0.5
100
AcDbArc
 50
180.0
 51
270.0
  0
ARC
  5
2E6
330
1F
100
AcDbEntity
  8
0
  6
Continuous
 62
     7
100
AcDbCircle
 10
347.4719568425643
 20
210.3587425593901
 30
0.0
 40
3.0
100
AcDbArc
 50
270.0
 51
0.0
  0
ARC
  5
2E7
330
1F
100
AcDbEntity
  8
0
  6
Continuous
 62
     7
100
AcDbCircle
 10
270.4719568425643
 20
210.3587425593901
 30
0.0
 40
1.5
100
AcDbArc
 50
180.0
 51
270.0
  0
ARC
  5
2E8
330
1F
100
AcDbEntity
  8
0
  6
Continuous
 62
     7
100
AcDbCircle
 10
338.4719568425643
 20
206.8587425593901
 30
0.0
 40
1.0
100
AcDbArc
 50
270.0
 51
0.0
  0
ARC
  5
2E9
330
1F
100
AcDbEntity
  8
0
  6
Continuous
 62
     7
100
AcDbCircle
 10
338.1490568425643
 20
210.35874255939
 30
0.0
 40
3.5
100
AcDbArc
 50
270.0
 51
301.0027191338747
  0
ARC
  5
2EA
330
1F
100
AcDbEntity
  8
0
  6
Continuous
 62
     7
100
AcDbCircle
 10
347.4719568425643
 20
210.3587425593901
 30
0.0
 40
1.5
100
AcDbArc
 50
270.0
 51
0.0
  0
ARC
  5
2EB
330
1F
100
AcDbEntity
  8
0
  6
Continuous
 62
     7
100
AcDbCircle
 10
266.9719568425643
 20
218.3587425593901
 30
0.0
 40
0.5
100
AcDbArc
 50
0.0
 51
90.0
  0
ARC
  5
2EC
330
1F
100
AcDbEntity
  8
0
  6
Continuous
 62
     7
100
AcDbCircle
 10
266.9719568425643
 20
225.3587425593901
 30
0.0
 40
0.5
100
AcDbArc
 50
270.0
 51
0.0
  0
ARC
  5
2ED
330
1F
100
AcDbEntity
  8
0
  6
Continuous
 62
     7
100
AcDbCircle
 10
268.9719568425642
 20
211.1087425593901
 30
0.0
 40
2.00000000000001
100
AcDbArc
 50
286.2893252774471
 51
0.0
  0
ARC
  5
2EE
330
1F
100
AcDbEntity
  8
0
  6
Continuous
 62
     7
100
AcDbCircle
 10
348.9719568425643
 20
211.1087425593901
 30
0.0
 40
2.0
100
AcDbArc
 50
180.0
 51
253.7106747225539
  0
ARC
  5
2EF
330
1F
100
AcDbEntity
  8
0
  6
Continuous
 62
     7
100
AcDbCircle
 10
268.9719568425642
 20
211.1087425593901
 30
0.0
 40
0.5
100
AcDbArc
 50
270.0
 51
0.0
  0
ARC
  5
2F0
330
1F
100
AcDbEntity
  8
0
  6
Continuous
 62
     7
100
AcDbCircle
 10
348.9719568425643
 20
211.1087425593901
 30
0.0
 40
0.5
100
AcDbArc
 50
180.0
 51
270.0
  0
ARC
  5
2F1
330
1F
100
AcDbEntity
  8
0
  6
Continuous
 62
     7
100
AcDbCircle
 10
278.1328572113869
 20
225.8587425593901
 30
0.0
 40
0.9999999999999931
100
AcDbArc
 50
9.99999999999861
 51
90.0
  0
ARC
  5
2F2
330
1F
100
AcDbEntity
  8
0
  6
Continuous
 62
     7
100
AcDbCircle
 10
339.8110564737415
 20
225.8587425593901
 30
0.0
 40
1.0
100
AcDbArc
 50
90.0
 51
170.0000000000008
  0
ARC
  5
2F3
330
1F
100
AcDbEntity
  8
0
  6
Continuous
 62
     7
100
AcDbCircle
 10
344.1164637630738
 20
235.8587425593901
 30
0.0
 40
1.0
100
AcDbArc
 50
90.0
 51
140.0000000000012
  0
ARC
  5
2F4
330
1F
100
AcDbEntity
  8
0
  6
Continuous
 62
     7
100
AcDbCircle
 10
335.7949782441878
 20
235.6587425593901
 30
0.0
 40
1.999999999999918
100
AcDbArc
 50
30.00000000000136
 51
36.86989764584533
  0
ARC
  5
2F5
330
1F
100
AcDbEntity
  8
0
  6
Continuous
 62
     7
100
AcDbCircle
 10
335.7949782441878
 20
237.6587425593901
 30
0.0
 40
1.999999999999918
100
AcDbArc
 50
329.9999999999987
 51
336.4218215217973
  0
ARC
  5
2F6
330
1F
100
AcDbEntity
  8
0
  6
Continuous
 62
     7
100
AcDbCircle
 10
341.5056491844092
 20
235.8587425593901
 30
0.0
 40
1.0
100
AcDbArc
 50
270.0
 51
319.9999999999974
  0
ARC
  5
2F7
330
1F
100
AcDbEntity
  8
0
  6
Continuous
 62
     7
100
AcDbCircle
 10
335.7949782441878
 20
236.55874255939
 30
0.0
 40
1.999999999999869
100
AcDbArc
 50
323.1301023541566
 51
329.9999999999987
  0
ARC
  5
2F8
330
1F
100
AcDbEntity
  8
0
  6
Continuous
 62
     7
100
AcDbCircle
 10
335.7949782441878
 20
234.55874255939
 30
0.0
 40
1.999999999999995
100
AcDbArc
 50
23.57817847820491
 51
30.00000000000136
  0
ARC
  5
2F9
330
1F
100
AcDbEntity
  8
0
  6
Continuous
 62
     7
100
AcDbCircle
 10
276.4382645007192
 20
235.8587425593901
 30
0.0
 40
0.9999999999999425
100
AcDbArc
 50
220.0000000000068
 51
270.0
  0
ARC
  5
2FA
330
1F
100
AcDbEntity
  8
0
  6
Continuous
 62
     7
100
AcDbCircle
 10
273.8274499220547
 20
235.8587425593901
 30
0.0
 40
0.9999999999999313
100
AcDbArc
 50
40.00000000000095
 51
90.0
  0
ARC
  5
2FB
330
1F
100
AcDbEntity
  8
0
  6
Continuous
 62
     7
100
AcDbCircle
 10
282.1489354409408
 20
234.55874255939
 30
0.0
 40
2.000000000000016
100
AcDbArc
 50
150.0000000000003
 51
156.4218215217986
  0
ARC
  5
2FC
330
1F
100
AcDbEntity
  8
0
  6
Continuous
 62
     7
100
AcDbCircle
 10
282.1489354409408
 20
235.6587425593901
 30
0.0
 40
2.000000000000102
100
AcDbArc
 50
143.1301023541586
 51
150.0000000000003
  0
ARC
  5
2FD
330
1F
100
AcDbEntity
  8
0
  6
Continuous
 62
     7
100
AcDbCircle
 10
282.1489354409408
 20
237.6587425593901
 30
0.0
 40
2.000000000000065
100
AcDbArc
 50
203.5781784782014
 51
209.9999999999997
  0
ARC
  5
2FE
330
1F
100
AcDbEntity
  8
0
  6
Continuous
 62
     7
100
AcDbCircle
 10
282.1489354409408
 20
236.55874255939
 30
0.0
 40
2.000000000000016
100
AcDbArc
 50
209.9999999999997
 51
216.8698976458395
  0
ARC
  5
2FF
330
1F
100
AcDbEntity
  8
0
  6
Continuous
 62
     7
100
AcDbCircle
 10
348.9719568425643
 20
241.1587425593901
 30
0.0
 40
0.5
100
AcDbArc
 50
180.0
 51
270.0
  0
ARC
  5
300
330
1F
100
AcDbEntity
  8
0
  6
Continuous
 62
     7
100
AcDbCircle
 10
268.9719568425642
 20
241.1587425593901
 30
0.0
 40
0.5
100
AcDbArc
 50
270.0
 51
0.0
  0
ARC
  5
301
330
1F
100
AcDbEntity
  8
0
  6
Continuous
 62
     7
100
AcDbCircle
 10
501.3054649775042
 20
234.85874255939
 30
0.0
 40
0.5
100
AcDbArc
 50
90.0
 51
179.9999999999902
  0
ARC
  5
302
330
1F
100
AcDbEntity
  8
0
  6
Continuous
 62
     7
100
AcDbCircle
 10
501.3054649775042
 20
234.85874255939
 30
0.0
 40
2.0
100
AcDbArc
 50
90.0
 51
104.4775121859293
  0
ARC
  5
303
330
1F
100
AcDbEntity
  8
0
  6
Continuous
 62
     7
100
AcDbCircle
 10
500.8054649775042
 20
226.8587425593901
 30
0.0
 40
1.5
100
AcDbArc
 50
180.0
 51
205.000000000005
  0
ARC
  5
304
330
1F
100
AcDbEntity
  8
0
  6
Continuous
 62
     7
100
AcDbCircle
 10
468.8054649775042
 20
209.85874255939
 30
0.0
 40
31.00000000000011
100
AcDbArc
 50
34.22886632781263
 51
45.78288061570146
  0
ARC
  5
305
330
1F
100
AcDbEntity
  8
0
  6
Continuous
 62
     7
100
AcDbCircle
 10
489.7268432929343
 20
231.3598106580371
 30
0.0
 40
1.000000000000025
100
AcDbArc
 50
45.78288061570066
 51
135.0000000000069
  0
ARC
  5
306
330
1F
100
AcDbEntity
  8
0
  6
Continuous
 62
     7
100
AcDbCircle
 10
495.2629780881503
 20
227.8587425593901
 30
0.0
 40
1.000000000000114
100
AcDbArc
 50
214.2288663278081
 51
270.0
  0
ARC
  5
307
330
1F
100
AcDbEntity
  8
0
  6
Continuous
 62
     7
100
AcDbCircle
 10
497.5734141699354
 20
237.85874255939
 30
0.0
 40
0.9999999999999836
100
AcDbArc
 50
239.9999999999994
 51
254.4577317766166
  0
ARC
  5
308
330
1F
100
AcDbEntity
  8
0
  6
Continuous
 62
     7
100
AcDbCircle
 10
497.5734141699354
 20
237.85874255939
 30
0.0
 40
0.9999999999999581
100
AcDbArc
 50
254.4577317766166
 51
270.0
  0
ARC
  5
309
330
1F
100
AcDbEntity
  8
0
  6
Continuous
 62
     7
100
AcDbCircle
 10
471.1054649775043
 20
234.6587425593901
 30
0.0
 40
6.0
100
AcDbArc
 50
0.0
 51
118.0724869358531
  0
ARC
  5
30A
330
1F
100
AcDbEntity
  8
0
  6
Continuous
 62
     7
100
AcDbCircle
 10
471.1054649775043
 20
234.6587425593901
 30
0.0
 40
4.5
100
AcDbArc
 50
0.0
 51
118.0724869358532
  0
ARC
  5
30B
330
1F
100
AcDbEntity
  8
0
  6
Continuous
 62
     7
100
AcDbCircle
 10
467.1054649775043
 20
242.1587425593901
 30
0.0
 40
4.000000000000033
100
AcDbArc
 50
209.9999999999997
 51
298.0724869358527
  0
ARC
  5
30C
330
1F
100
AcDbEntity
  8
0
  6
Continuous
 62
     7
100
AcDbCircle
 10
467.1054649775043
 20
242.1587425593901
 30
0.0
 40
2.5
100
AcDbArc
 50
233.130102354156
 51
298.0724869358527
  0
ARC
  5
30D
330
1F
100
AcDbEntity
  8
0
  6
Continuous
 62
     7
100
AcDbCircle
 10
477.5907463517428
 20
232.6587425593901
 30
0.0
 40
0.5000000000001447
100
AcDbArc
 50
315.0000000000115
 51
88.31312604016253
  0
ARC
  5
30E
330
1F
100
AcDbEntity
  8
0
  6
Continuous
 62
     7
100
AcDbCircle
 10
477.5907463517428
 20
232.6587425593901
 30
0.0
 40
0.5000000000000492
100
AcDbArc
 50
88.31312604016253
 51
90.0
  0
ARC
  5
30F
330
1F
100
AcDbEntity
  8
0
  6
Continuous
 62
     7
100
AcDbCircle
 10
475.6054649775043
 20
228.5521408415919
 30
0.0
 40
0.9999999999999276
100
AcDbArc
 50
135.0
 51
180.0
  0
ARC
  5
310
330
1F
100
AcDbEntity
  8
0
  6
Continuous
 62
     7
100
AcDbCircle
 10
467.1054649775043
 20
242.1587425593901
 30
0.0
 40
4.0
100
AcDbArc
 50
90.0
 51
209.9999999999997
  0
ARC
  5
311
330
1F
100
AcDbEntity
  8
0
  6
Continuous
 62
     7
100
AcDbCircle
 10
471.1054649775043
 20
222.1087425593901
 30
0.0
 40
11.00000000000007
100
AcDbArc
 50
353.4750211558562
 51
0.0
  0
ARC
  5
312
330
1F
100
AcDbEntity
  8
0
  6
Continuous
 62
     7
100
AcDbCircle
 10
483.1054649775043
 20
224.7384323426071
 30
0.0
 40
0.9999999999999276
100
AcDbArc
 50
135.0
 51
180.0
  0
ARC
  5
313
330
1F
100
AcDbEntity
  8
0
  6
Continuous
 62
     7
100
AcDbCircle
 10
473.1589166941801
 20
216.1587425593901
 30
0.0
 40
29.99999999999995
100
AcDbArc
 50
59.99999999999994
 51
90.0
  0
ARC
  5
314
330
1F
100
AcDbEntity
  8
0
  6
Continuous
 62
     7
100
AcDbCircle
 10
491.1054649775043
 20
212.8587425593901
 30
0.0
 40
8.0
100
AcDbArc
 50
359.9999999999994
 51
90.0
  0
ARC
  5
315
330
1F
100
AcDbEntity
  8
0
  6
Continuous
 62
     7
100
AcDbCircle
 10
468.8054649775042
 20
209.85874255939
 30
0.0
 40
1.899999999999919
100
AcDbArc
 50
269.8960936196202
 51
336.7504374094146
  0
ARC
  5
316
330
1F
100
AcDbEntity
  8
0
  6
Continuous
 62
     7
100
AcDbCircle
 10
466.1054649775043
 20
209.3188063554056
 30
0.0
 40
1.5
100
AcDbArc
 50
180.0
 51
204.2457738371263
  0
ARC
  5
317
330
1F
100
AcDbEntity
  8
0
  6
Continuous
 62
     7
100
AcDbCircle
 10
468.8054649775042
 20
209.85874255939
 30
0.0
 40
1.89999999999989
100
AcDbArc
 50
203.2495625905881
 51
204.7077794904394
  0
ARC
  5
318
330
1F
100
AcDbEntity
  8
0
  6
Continuous
 62
     7
100
AcDbCircle
 10
499.2554649775043
 20
210.35874255939
 30
0.0
 40
3.5
100
AcDbArc
 50
270.0
 51
301.0027191338741
  0
ARC
  5
319
330
1F
100
AcDbEntity
  8
0
  6
Continuous
 62
     7
100
AcDbCircle
 10
499.2554649775043
 20
210.35874255939
 30
0.0
 40
3.500000000000001
100
AcDbArc
 50
238.9972808661259
 51
270.0
  0
ARC
  5
31A
330
1F
100
AcDbEntity
  8
0
  6
Continuous
 62
     7
100
AcDbCircle
 10
468.8054649775042
 20
209.85874255939
 30
0.0
 40
1.900000000000026
100
AcDbArc
 50
157.0804578484283
 51
164.1762657879149
  0
ARC
  5
31B
330
1F
100
AcDbEntity
  8
0
  6
Continuous
 62
     7
100
AcDbCircle
 10
468.8054649775042
 20
209.85874255939
 30
0.0
 40
1.899999999999989
100
AcDbArc
 50
123.0662223646938
 51
146.9337776352998
  0
ARC
  5
31C
330
1F
100
AcDbEntity
  8
0
  6
Continuous
 62
     7
100
AcDbCircle
 10
468.8054649775042
 20
209.85874255939
 30
0.0
 40
1.900000000000027
100
AcDbArc
 50
146.9337776352998
 51
156.7504374094119
  0
ARC
  5
31D
330
1F
100
AcDbEntity
  8
0
  6
Continuous
 62
     7
100
AcDbCircle
 10
468.8054649775042
 20
209.85874255939
 30
0.0
 40
1.89999999999998
100
AcDbArc
 50
191.128331381914
 51
198.1233353385312
  0
ARC
  5
31E
330
1F
100
AcDbEntity
  8
0
  6
Continuous
 62
     7
100
AcDbCircle
 10
468.8054649775042
 20
209.85874255939
 30
0.0
 40
1.899999999999922
100
AcDbArc
 50
164.1762657879149
 51
191.128331381914
  0
ARC
  5
31F
330
1F
100
AcDbEntity
  8
0
  6
Continuous
 62
     7
100
AcDbCircle
 10
468.8054649775042
 20
209.85874255939
 30
0.0
 40
1.899999999999898
100
AcDbArc
 50
198.1233353385312
 51
202.9195421515693
  0
ARC
  5
320
330
1F
100
AcDbEntity
  8
0
  6
Continuous
 62
     7
100
AcDbCircle
 10
468.8054649775042
 20
209.85874255939
 30
0.0
 40
1.90000000000013
100
AcDbArc
 50
34.65892644782657
 51
40.74219558839066
  0
ARC
  5
321
330
1F
100
AcDbEntity
  8
0
  6
Continuous
 62
     7
100
AcDbCircle
 10
464.6054649775043
 20
209.85874255939
 30
0.0
 40
20.14734406395625
100
AcDbArc
 50
34.57239853308432
 51
35.54139766824642
  0
ARC
  5
322
330
1F
100
AcDbEntity
  8
0
  6
Continuous
 62
     7
100
AcDbCircle
 10
464.6054649775043
 20
209.85874255939
 30
0.0
 40
20.14734406395619
100
AcDbArc
 50
36.69276147214215
 51
38.41364285913848
  0
ARC
  5
323
330
1F
100
AcDbEntity
  8
0
  6
Continuous
 62
     7
100
AcDbCircle
 10
482.0183958324565
 20
221.85874255939
 30
0.0
 40
0.9999999999999196
100
AcDbArc
 50
253.9072128471493
 51
270.0
  0
ARC
  5
324
330
1F
100
AcDbEntity
  8
0
  6
Continuous
 62
     7
100
AcDbCircle
 10
482.0183958324565
 20
221.85874255939
 30
0.0
 40
1.000000000000022
100
AcDbArc
 50
214.5723985330776
 51
229.7835988540705
  0
ARC
  5
325
330
1F
100
AcDbEntity
  8
0
  6
Continuous
 62
     7
100
AcDbCircle
 10
464.6054649775043
 20
209.85874255939
 30
0.0
 40
20.1473440639562
100
AcDbArc
 50
36.11753157285484
 51
36.69276147214215
  0
ARC
  5
326
330
1F
100
AcDbEntity
  8
0
  6
Continuous
 62
     7
100
AcDbCircle
 10
464.6054649775043
 20
209.85874255939
 30
0.0
 40
20.14734406395615
100
AcDbArc
 50
35.54139766824642
 51
36.11753157285484
  0
ARC
  5
327
330
1F
100
AcDbEntity
  8
0
  6
Continuous
 62
     7
100
AcDbCircle
 10
482.0183958324565
 20
221.85874255939
 30
0.0
 40
1.000000000000018
100
AcDbArc
 50
241.4627898814788
 51
253.9072128471493
  0
ARC
  5
328
330
1F
100
AcDbEntity
  8
0
  6
Continuous
 62
     7
100
AcDbCircle
 10
482.0183958324565
 20
221.85874255939
 30
0.0
 40
0.9999999999999597
100
AcDbArc
 50
229.7835988540705
 51
241.4627898814788
  0
ARC
  5
329
330
1F
100
AcDbEntity
  8
0
  6
Continuous
 62
     7
100
AcDbCircle
 10
468.8054649775042
 20
209.85874255939
 30
0.0
 40
1.900000000000063
100
AcDbArc
 50
46.77753318508478
 51
65.29222050955654
  0
ARC
  5
32A
330
1F
100
AcDbEntity
  8
0
  6
Continuous
 62
     7
100
AcDbCircle
 10
468.8054649775042
 20
209.85874255939
 30
0.0
 40
1.900000000000063
100
AcDbArc
 50
78.87166861807773
 51
105.823734212078
  0
ARC
  5
32B
330
1F
100
AcDbEntity
  8
0
  6
Continuous
 62
     7
100
AcDbCircle
 10
468.8054649775042
 20
209.85874255939
 30
0.0
 40
1.900000000000146
100
AcDbArc
 50
65.29222050955654
 51
71.87666466146766
  0
ARC
  5
32C
330
1F
100
AcDbEntity
  8
0
  6
Continuous
 62
     7
100
AcDbCircle
 10
468.8054649775042
 20
209.85874255939
 30
0.0
 40
1.90000000000015
100
AcDbArc
 50
71.87666466146766
 51
78.87166861807773
  0
ARC
  5
32D
330
1F
100
AcDbEntity
  8
0
  6
Continuous
 62
     7
100
AcDbCircle
 10
464.6054649775043
 20
209.85874255939
 30
0.0
 40
20.14734406395624
100
AcDbArc
 50
38.41364285913848
 51
38.98586875715112
  0
ARC
  5
32E
330
1F
100
AcDbEntity
  8
0
  6
Continuous
 62
     7
100
AcDbCircle
 10
468.8054649775042
 20
209.85874255939
 30
0.0
 40
1.900000000000199
100
AcDbArc
 50
40.74219558839066
 51
46.77753318508478
  0
ARC
  5
32F
330
1F
100
AcDbEntity
  8
0
  6
Continuous
 62
     7
100
AcDbCircle
 10
468.8054649775042
 20
209.85874255939
 30
0.0
 40
1.900000000000099
100
AcDbArc
 50
23.24956259058541
 51
34.65892644782657
  0
ARC
  5
330
330
1F
100
AcDbEntity
  8
0
  6
Continuous
 62
     7
100
AcDbCircle
 10
468.8054649775042
 20
209.85874255939
 30
0.0
 40
1.900000000000113
100
AcDbArc
 50
15.31066593168279
 51
22.91954215157168
  0
ARC
  5
331
330
1F
100
AcDbEntity
  8
0
  6
Continuous
 62
     7
100
AcDbCircle
 10
468.8054649775042
 20
209.85874255939
 30
0.0
 40
1.899999999999981
100
AcDbArc
 50
8.0899763804929
 51
15.31066593168279
  0
ARC
  5
332
330
1F
100
AcDbEntity
  8
0
  6
Continuous
 62
     7
100
AcDbCircle
 10
468.8054649775042
 20
209.85874255939
 30
0.0
 40
1.899999999999913
100
AcDbArc
 50
261.9100236195155
 51
269.8960936196202
  0
ARC
  5
333
330
1F
100
AcDbEntity
  8
0
  6
Continuous
 62
     7
100
AcDbCircle
 10
471.1054649775043
 20
221.8587425593901
 30
0.0
 40
15.00000000000007
100
AcDbArc
 50
257.2309526355017
 51
258.1386315413158
  0
ARC
  5
334
330
1F
100
AcDbEntity
  8
0
  6
Continuous
 62
     7
100
AcDbCircle
 10
471.1054649775043
 20
221.8587425593901
 30
0.0
 40
15.00000000000003
100
AcDbArc
 50
256.3322514975943
 51
257.2309526355017
  0
ARC
  5
335
330
1F
100
AcDbEntity
  8
0
  6
Continuous
 62
     7
100
AcDbCircle
 10
468.8054649775042
 20
209.85874255939
 30
0.0
 40
1.899999999999883
100
AcDbArc
 50
254.6893340683198
 51
261.9100236195155
  0
ARC
  5
336
330
1F
100
AcDbEntity
  8
0
  6
Continuous
 62
     7
100
AcDbCircle
 10
468.8054649775042
 20
209.85874255939
 30
0.0
 40
1.89999999999994
100
AcDbArc
 50
235.3410735521757
 51
254.6893340683198
  0
ARC
  5
337
330
1F
100
AcDbEntity
  8
0
  6
Continuous
 62
     7
100
AcDbCircle
 10
468.8054649775042
 20
209.85874255939
 30
0.0
 40
1.899999999999993
100
AcDbArc
 50
337.0804578484307
 51
0.10390638038583
  0
ARC
  5
338
330
1F
100
AcDbEntity
  8
0
  6
Continuous
 62
     7
100
AcDbCircle
 10
468.8054649775042
 20
209.85874255939
 30
0.0
 40
1.900000000000032
100
AcDbArc
 50
105.823734212078
 51
123.0662223646938
  0
ARC
  5
339
330
1F
100
AcDbEntity
  8
0
  6
Continuous
 62
     7
100
AcDbCircle
 10
468.8054649775042
 20
209.85874255939
 30
0.0
 40
1.899999999999985
100
AcDbArc
 50
223.2224668149127
 51
229.2578044116081
  0
ARC
  5
33A
330
1F
100
AcDbEntity
  8
0
  6
Continuous
 62
     7
100
AcDbCircle
 10
468.8054649775042
 20
209.85874255939
 30
0.0
 40
1.899999999999896
100
AcDbArc
 50
204.7077794904394
 51
223.2224668149127
  0
ARC
  5
33B
330
1F
100
AcDbEntity
  8
0
  6
Continuous
 62
     7
100
AcDbCircle
 10
468.8054649775042
 20
209.85874255939
 30
0.0
 40
1.90000000000009
100
AcDbArc
 50
0.10390638038583
 51
8.0899763804929
  0
ARC
  5
33C
330
1F
100
AcDbEntity
  8
0
  6
Continuous
 62
     7
100
AcDbCircle
 10
471.1054649775043
 20
221.8587425593901
 30
0.0
 40
14.99999999999997
100
AcDbArc
 50
252.8181392846543
 51
253.6854020141184
  0
ARC
  5
33D
330
1F
100
AcDbEntity
  8
0
  6
Continuous
 62
     7
100
AcDbCircle
 10
471.1054649775043
 20
221.8587425593901
 30
0.0
 40
15.00000000000008
100
AcDbArc
 50
253.6854020141184
 51
256.3322514975943
  0
ARC
  5
33E
330
1F
100
AcDbEntity
  8
0
  6
Continuous
 62
     7
100
AcDbCircle
 10
468.8054649775042
 20
209.85874255939
 30
0.0
 40
1.899999999999934
100
AcDbArc
 50
229.2578044116081
 51
235.3410735521757
  0
ARC
  5
33F
330
1F
100
AcDbEntity
  8
0
  6
Continuous
 62
     7
100
AcDbCircle
 10
464.6054649775043
 20
209.85874255939
 30
0.0
 40
20.14734406395613
100
AcDbArc
 50
39.55749317222785
 51
41.26934131309424
  0
ARC
  5
340
330
1F
100
AcDbEntity
  8
0
  6
Continuous
 62
     7
100
AcDbCircle
 10
464.6054649775043
 20
209.85874255939
 30
0.0
 40
20.14734406395615
100
AcDbArc
 50
38.98586875715112
 51
39.55749317222785
  0
ARC
  5
341
330
1F
100
AcDbEntity
  8
0
  6
Continuous
 62
     7
100
AcDbCircle
 10
464.6054649775043
 20
209.85874255939
 30
0.0
 40
20.14734406395614
100
AcDbArc
 50
41.26934131309424
 51
41.8391413415304
  0
ARC
  5
342
330
1F
100
AcDbEntity
  8
0
  6
Continuous
 62
     7
100
AcDbCircle
 10
464.6054649775043
 20
209.85874255939
 30
0.0
 40
20.14734406395619
100
AcDbArc
 50
41.8391413415304
 51
42.4086285999314
  0
ARC
  5
343
330
1F
100
AcDbEntity
  8
0
  6
Continuous
 62
     7
100
AcDbCircle
 10
471.1054649775043
 20
221.8587425593901
 30
0.0
 40
15.00000000000009
100
AcDbArc
 50
258.1386315413158
 51
260.9208198375348
  0
ARC
  5
344
330
1F
100
AcDbEntity
  8
0
  6
Continuous
 62
     7
100
AcDbCircle
 10
471.1054649775043
 20
221.8587425593901
 30
0.0
 40
15.00000000000005
100
AcDbArc
 50
262.8309168959062
 51
325.7711336721874
  0
ARC
  5
345
330
1F
100
AcDbEntity
  8
0
  6
Continuous
 62
     7
100
AcDbCircle
 10
471.1054649775043
 20
221.8587425593901
 30
0.0
 40
15.0
100
AcDbArc
 50
261.8698976458442
 51
262.8309168959062
  0
ARC
  5
346
330
1F
100
AcDbEntity
  8
0
  6
Continuous
 62
     7
100
AcDbCircle
 10
464.6054649775043
 20
209.85874255939
 30
0.0
 40
20.14734406395628
100
AcDbArc
 50
42.4086285999314
 51
61.55707137563677
  0
ARC
  5
347
330
1F
100
AcDbEntity
  8
0
  6
Continuous
 62
     7
100
AcDbCircle
 10
471.1054649775043
 20
221.8587425593901
 30
0.0
 40
6.499999999999954
100
AcDbArc
 50
61.55707137563667
 51
180.0
  0
ARC
  5
348
330
1F
100
AcDbEntity
  8
0
  6
Continuous
 62
     7
100
AcDbCircle
 10
471.1054649775043
 20
221.8587425593901
 30
0.0
 40
15.00000000000008
100
AcDbArc
 50
251.957749139283
 51
252.8181392846543
  0
ARC
  5
349
330
1F
100
AcDbEntity
  8
0
  6
Continuous
 62
     7
100
AcDbCircle
 10
466.1054649775043
 20
209.3188063554056
 30
0.0
 40
1.499999999999944
100
AcDbArc
 50
243.1982952652189
 51
248.2615392084812
  0
ARC
  5
34A
330
1F
100
AcDbEntity
  8
0
  6
Continuous
 62
     7
100
AcDbCircle
 10
471.1054649775043
 20
221.8587425593901
 30
0.0
 40
15.00000000000009
100
AcDbArc
 50
249.4144023149297
 51
251.957749139283
  0
ARC
  5
34B
330
1F
100
AcDbEntity
  8
0
  6
Continuous
 62
     7
100
AcDbCircle
 10
471.1054649775043
 20
221.8587425593901
 30
0.0
 40
14.99999999999996
100
AcDbArc
 50
248.2615392084797
 51
248.5781784782022
  0
ARC
  5
34C
330
1F
100
AcDbEntity
  8
0
  6
Continuous
 62
     7
100
AcDbCircle
 10
471.1054649775043
 20
221.8587425593901
 30
0.0
 40
14.99999999999997
100
AcDbArc
 50
248.5781784782022
 51
249.4144023149297
  0
ARC
  5
34D
330
1F
100
AcDbEntity
  8
0
  6
Continuous
 62
     7
100
AcDbCircle
 10
466.1054649775043
 20
209.3188063554056
 30
0.0
 40
1.500000000000077
100
AcDbArc
 50
219.9690791898281
 51
243.1982952652189
  0
ARC
  5
34E
330
1F
100
AcDbEntity
  8
0
  6
Continuous
 62
     7
100
AcDbCircle
 10
466.1054649775043
 20
209.3188063554056
 30
0.0
 40
1.500000000000016
100
AcDbArc
 50
212.2306580202223
 51
219.9690791898281
  0
ARC
  5
34F
330
1F
100
AcDbEntity
  8
0
  6
Continuous
 62
     7
100
AcDbCircle
 10
466.1054649775043
 20
209.3188063554056
 30
0.0
 40
1.49999999999987
100
AcDbArc
 50
204.2457738371263
 51
212.2306580202223
  0
ARC
  5
350
330
1F
100
AcDbEntity
  8
0
  6
Continuous
 62
     7
100
AcDbCircle
 10
491.1054649775043
 20
212.8587425593901
 30
0.0
 40
1.0
100
AcDbArc
 50
0.0
 51
90.0
  0
ARC
  5
351
330
1F
100
AcDbEntity
  8
0
  6
Continuous
 62
     7
100
AcDbCircle
 10
484.3342215328272
 20
212.8587425593901
 30
0.0
 40
1.0
100
AcDbArc
 50
90.0
 51
145.7711336721846
  0
ARC
  5
352
330
1F
100
AcDbEntity
  8
0
  6
Continuous
 62
     7
100
AcDbCircle
 10
494.9054649775044
 20
206.85874255939
 30
0.0
 40
2.000000000000063
100
AcDbArc
 50
165.5224878140706
 51
176.6477121753409
  0
ARC
  5
353
330
1F
100
AcDbEntity
  8
0
  6
Continuous
 62
     7
100
AcDbCircle
 10
471.1054649775043
 20
221.8587425593901
 30
0.0
 40
15.00000000000003
100
AcDbArc
 50
260.9208198375348
 51
261.8698976458442
  0
ARC
  5
354
330
1F
100
AcDbEntity
  8
0
  6
Continuous
 62
     7
100
AcDbCircle
 10
494.9054649775044
 20
206.85874255939
 30
0.0
 40
0.5
100
AcDbArc
 50
90.0
 51
180.0
  0
ARC
  5
355
330
1F
100
AcDbEntity
  8
1
  6
Continuous
 62
     2
100
AcDbCircle
 10
468.8054649775042
 20
209.85874255939
 30
0.0
 40
48.67494221876387
100
AcDbArc
 50
0.0
 51
33.69006752597979
  0
ARC
  5
356
330
1F
100
AcDbEntity
  8
1
  6
DASH_CENTER
 62
     2
100
AcDbCircle
 10
468.8054649775042
 20
209.85874255939
 30
0.0
 40
48.67494221876385
100
AcDbArc
 50
33.69006752597979
 51
41.51297499433547
  0
ARC
  5
357
330
1F
100
AcDbEntity
  8
DISEGNO
  6
Continuous
 62
     7
100
AcDbCircle
 10
475.6054647435301
 20
238.2587422411872
 30
0.0
 40
5.000000000000039
100
AcDbArc
 50
11.53695985374142
 51
89.99999731885555
  0
ARC
  5
358
330
1F
100
AcDbEntity
  8
DISEGNO
  6
Continuous
 62
     7
100
AcDbCircle
 10
488.1054044318122
 20
233.158742754098
 30
0.0
 40
5.000000000000005
100
AcDbArc
 50
359.9999973188565
 51
78.46304096718436
  0
CIRCLE
  5
359
330
1F
100
AcDbEntity
  8
Skizziergeometrie_TC_020513_DIN_
  6
Continuous
 62
     7
100
AcDbCircle
 10
94.70509783814549
 20
251.3588047757851
 30
0.0
 40
2.25
  0
CIRCLE
  5
35A
330
1F
100
AcDbEntity
  8
Skizziergeometrie_TC_020513_DIN_
  6
Continuous
 62
     7
100
AcDbCircle
 10
94.70509783814549
 20
168.3588047757851
 30
0.0
 40
2.25
  0
CIRCLE
  5
35B
330
1F
100
AcDbEntity
  8
Skizziergeometrie_TC_020513_DIN_
  6
Continuous
 62
     7
100
AcDbCircle
 10
126.7050978381452
 20
168.3588047757851
 30
0.0
 40
2.25
  0
CIRCLE
  5
35C
330
1F
100
AcDbEntity
  8
Skizziergeometrie_TC_020513_DIN_
  6
Continuous
 62
     7
100
AcDbCircle
 10
126.7050978381452
 20
251.3588047757851
 30
0.0
 40
2.25
  0
CIRCLE
  5
35D
330
1F
100
AcDbEntity
  8
0
  6
Continuous
 62
     7
100
AcDbCircle
 10
471.1054649775043
 20
221.8587425593901
 30
0.0
 40
4.499999999999901
  0
CIRCLE
  5
35E
330
1F
100
AcDbEntity
  8
0
  6
Continuous
 62
     7
100
AcDbCircle
 10
471.1054649775043
 20
221.8587425593901
 30
0.0
 40
4.499999999999901
  0
SPLINE
  5
35F
330
1F
100
AcDbEntity
  8
0
  6
Continuous
 62
     7
100
AcDbSpline
210
0.0
220
0.0
230
1.0
 70
     8
 71
     3
 72
    19
 73
    15
 74
    13
 42
0.000000001
 43
0.0000000001
 44
0.00000001
 40
0.0
 40
0.0
 40
0.0
 40
0.0
 40
0.0007762170763118
 40
0.001552434366445
 40
0.0043637026768794
 40
0.0076232674264615
 40
0.0152421682217115
 40
0.02365711528841
 40
0.0391894071126637
 40
0.0559966158209183
 40
0.0740292712145092
 40
0.1018280685535992
 40
0.1299283872358578
 40
0.1583538046993565
 40
0.1583538046993565
 40
0.1583538046993565
 40
0.1583538046993565
 10
492.6145097921716
 20
206.8193437465287
 30
0.0
 10
492.614747975475
 20
206.8192426791103
 30
0.0
 10
492.6152243365083
 20
206.8190405309668
 30
0.0
 10
492.6165623892188
 20
206.8184701077741
 30
0.0
 10
492.6186590431668
 20
206.817568318965
 30
0.0
 10
492.6228400759408
 20
206.8157401013535
 30
0.0
 10
492.6287044200837
 20
206.8130995178886
 30
0.0
 10
492.6382275405011
 20
206.8086237264938
 30
0.0
 10
492.6503800730181
 20
206.8025467539931
 30
0.0
 10
492.6651452857282
 20
206.794545425177
 30
0.0
 10
492.6831474617042
 20
206.7839585361754
 30
0.0
 10
492.7037869780915
 20
206.7704733247046
 30
0.0
 10
492.7265100927128
 20
206.7538915147336
 30
0.0
 10
492.7409125499425
 20
206.7417353296194
 30
0.0
 10
492.7481551906137
 20
206.7356222742182
 30
0.0
 11
492.6145097921716
 21
206.8193437465287
 31
0.0
 11
492.6152242571804
 21
206.8190403434964
 31
0.0
 11
492.6159383106451
 21
206.8187359731655
 31
0.0
 11
492.6185207338779
 21
206.817624972563
 31
0.0
 11
492.6215072560774
 21
206.8163190439427
 31
0.0
 11
492.6284542521734
 21
206.8131906415473
 31
0.0
 11
492.6360699843616
 21
206.809611261385
 31
0.0
 11
492.6499621160468
 21
206.8026642636684
 31
0.0
 11
492.6647396651117
 21
206.7946576217323
 31
0.0
 11
492.6802823322366
 21
206.785514199841
 31
0.0
 11
492.7035687449958
 21
206.7703314424376
 31
0.0
 11
492.7262174593292
 21
206.7536982331
 31
0.0
 11
492.7481551906137
 21
206.7356222742182
 31
0.0
  0
SPLINE
  5
360
330
1F
100
AcDbEntity
  8
0
  6
Continuous
 62
     7
100
AcDbSpline
210
0.0
220
0.0
230
1.0
 70
     8
 71
     3
 72
    20
 73
    16
 74
    14
 42
0.000000001
 43
0.0000000001
 44
0.00000001
 40
0.0
 40
0.0
 40
0.0
 40
0.0
 40
0.0187078005572662
 40
0.0390423161025462
 40
0.0609036097565153
 40
0.0842085406736434
 40
0.1018876195608904
 40
0.118394433349588
 40
0.1336830060814954
 40
0.1424061425993358
 40
0.1503109573341536
 40
0.1537846453710945
 40
0.1567729585830187
 40
0.1575657691206051
 40
0.1583585795191546
 40
0.1583585795191546
 40
0.1583585795191546
 40
0.1583585795191546
 10
449.4627747643734
 20
206.7356222741995
 30
0.0
 10
449.4675188997217
 20
206.7396705626027
 30
0.0
 10
449.4774197008536
 20
206.748119142089
 30
0.0
 10
449.4934854582278
 20
206.7605431021432
 30
0.0
 10
449.5112695792093
 20
206.7732186491808
 30
0.0
 10
449.5288744759658
 20
206.7845879756708
 30
0.0
 10
449.5453886150428
 20
206.7943178266273
 30
0.0
 10
449.55988122485
 20
206.8021941337184
 30
0.0
 10
449.5719521597726
 20
206.8082580784597
 30
0.0
 10
449.5815730783772
 20
206.8128004556927
 30
0.0
 10
449.5876799481202
 20
206.8155586669267
 30
0.0
 10
449.5920665654178
 20
206.8174800720741
 30
0.0
 10
449.5942878623193
 20
206.8184360779771
 30
0.0
 10
449.5956903512518
 20
206.8190340472827
 30
0.0
 10
449.596176894347
 20
206.8192405195275
 30
0.0
 10
449.5964201686927
 20
206.8193437490011
 30
0.0
 11
449.4627747643734
 21
206.7356222741995
 31
0.0
 11
449.4770985929427
 21
206.7476559656709
 31
0.0
 11
449.4931583574046
 21
206.7601289961608
 31
0.0
 11
449.5109688256609
 21
206.7728058800238
 31
0.0
 11
449.5305447656134
 21
206.7854511316143
 31
0.0
 11
449.5457772962399
 21
206.7944244168097
 31
0.0
 11
449.5602807599319
 21
206.8023063233558
 31
0.0
 11
449.5739424214295
 21
206.809169228957
 31
0.0
 11
449.5818305456957
 21
206.812893556001
 31
0.0
 11
449.589034520981
 21
206.816147606311
 31
0.0
 11
449.5922163524317
 21
206.8175413276882
 31
0.0
 11
449.5949611307907
 21
206.8187229410059
 31
0.0
 11
449.5956904345549
 21
206.8190338507407
 31
0.0
 11
449.5964201686927
 21
206.8193437490011
 31
0.0
  0
SPLINE
  5
361
330
1F
100
AcDbEntity
  8
0
  6
Continuous
 62
     7
100
AcDbSpline
210
0.0
220
0.0
230
1.0
 70
     8
 71
     3
 72
     9
 73
     5
 74
     3
 42
0.000000001
 43
0.0000000001
 44
0.00000001
 40
0.0
 40
0.0
 40
0.0
 40
0.0
 40
0.1293380687356859
 40
0.2588026189301035
 40
0.2588026189301035
 40
0.2588026189301035
 40
0.2588026189301035
 10
350.2719568425642
 20
221.7344647987493
 30
0.0
 10
350.3053185981518
 20
221.707157290226
 30
0.0
 10
350.3720747215572
 20
221.6525155533321
 30
0.0
 10
350.4386519606363
 20
221.5976559992649
 30
0.0
 10
350.4719568425643
 20
221.5702128090814
 30
0.0
 11
350.2719568425642
 21
221.7344647987493
 31
0.0
 11
350.3719974256147
 21
221.6524878643713
 31
0.0
 11
350.4719568425643
 21
221.5702128090814
 31
0.0
  0
SPLINE
  5
362
330
1F
100
AcDbEntity
  8
0
  6
Continuous
 62
     7
100
AcDbSpline
210
0.0
220
0.0
230
1.0
 70
     8
 71
     3
 72
     9
 73
     5
 74
     3
 42
0.000000001
 43
0.0000000001
 44
0.00000001
 40
0.0
 40
0.0
 40
0.0
 40
0.0
 40
0.1270664196164595
 40
0.2542834628309345
 40
0.2542834628309345
 40
0.2542834628309345
 40
0.2542834628309345
 10
350.2719568425642
 20
222.5340149223594
 30
0.0
 10
350.305313814254
 20
222.507913173591
 30
0.0
 10
350.3720672864
 20
222.455678719496
 30
0.0
 10
350.4386471818706
 20
222.403223197643
 30
0.0
 10
350.4719568425643
 20
222.3769798929608
 30
0.0
 11
350.2719568425642
 21
222.5340149223594
 31
0.0
 11
350.3719844086989
 21
222.4556544667066
 31
0.0
 11
350.4719568425643
 21
222.3769798929608
 31
0.0
  0
SPLINE
  5
363
330
1F
100
AcDbEntity
  8
0
  6
Continuous
 62
     7
100
AcDbSpline
210
0.0
220
0.0
230
1.0
 70
     8
 71
     3
 72
     9
 73
     5
 74
     3
 42
0.000000001
 43
0.0000000001
 44
0.00000001
 40
0.0
 40
0.0
 40
0.0
 40
0.0
 40
0.1288749274936086
 40
0.2578812227083589
 40
0.2578812227083589
 40
0.2578812227083589
 40
0.2578812227083589
 10
350.4719568425643
 20
221.8972611308701
 30
0.0
 10
350.438596066173
 20
221.8701968061362
 30
0.0
 10
350.3718405199422
 20
221.8160405533278
 30
0.0
 10
350.3052627026505
 20
221.7616659551323
 30
0.0
 10
350.2719568425642
 20
221.7344647987493
 30
0.0
 11
350.4719568425643
 21
221.8972611308701
 31
0.0
 11
350.3719189066657
 21
221.8160136181669
 31
0.0
 11
350.2719568425642
 21
221.7344647987493
 31
0.0
  0
SPLINE
  5
364
330
1F
100
AcDbEntity
  8
0
  6
Continuous
 62
     7
100
AcDbSpline
210
0.0
220
0.0
230
1.0
 70
     8
 71
     3
 72
     9
 73
     5
 74
     3
 42
0.000000001
 43
0.0000000001
 44
0.00000001
 40
0.0
 40
0.0
 40
0.0
 40
0.0
 40
0.1244699077504726
 40
0.2491187592135838
 40
0.2491187592135838
 40
0.2491187592135838
 40
0.2491187592135838
 10
350.4719568425643
 20
223.4463851874315
 30
0.0
 10
350.4386053156676
 20
223.4217053176318
 30
0.0
 10
350.3718543260877
 20
223.3723100810435
 30
0.0
 10
350.3052719419524
 20
223.3226878063114
 30
0.0
 10
350.2719568425643
 20
223.2978588389046
 30
0.0
 11
350.4719568425643
 21
223.4463851874315
 31
0.0
 11
350.3719443586467
 21
223.3722888919852
 31
0.0
 11
350.2719568425643
 21
223.2978588389046
 31
0.0
  0
SPLINE
  5
365
330
1F
100
AcDbEntity
  8
0
  6
Continuous
 62
     7
100
AcDbSpline
210
0.0
220
0.0
230
1.0
 70
     8
 71
     3
 72
     9
 73
     5
 74
     3
 42
0.000000001
 43
0.0000000001
 44
0.00000001
 40
0.0
 40
0.0
 40
0.0
 40
0.0
 40
0.1266245498492166
 40
0.2534044791943869
 40
0.2534044791943869
 40
0.2534044791943869
 40
0.2534044791943869
 10
350.4719568425643
 20
222.6896226053833
 30
0.0
 10
350.4386007974991
 20
222.6637593547407
 30
0.0
 10
350.3718477888309
 20
222.612001101173
 30
0.0
 10
350.3052674288672
 20
222.5600209447479
 30
0.0
 10
350.2719568425642
 20
222.5340149223594
 30
0.0
 11
350.4719568425643
 21
222.6896226053833
 31
0.0
 11
350.3719318227542
 21
222.6119774378626
 31
0.0
 11
350.2719568425642
 21
222.5340149223594
 31
0.0
  0
SPLINE
  5
366
330
1F
100
AcDbEntity
  8
0
  6
Continuous
 62
     7
100
AcDbSpline
210
0.0
220
0.0
230
1.0
 70
     8
 71
     3
 72
     9
 73
     5
 74
     3
 42
0.000000001
 43
0.0000000001
 44
0.00000001
 40
0.0
 40
0.0
 40
0.0
 40
0.0
 40
0.1248939612393391
 40
0.2499621735860167
 40
0.2499621735860167
 40
0.2499621735860167
 40
0.2499621735860167
 10
350.2719568425643
 20
223.2978588389046
 30
0.0
 10
350.3053092598189
 20
223.2729432641671
 30
0.0
 10
350.3720606153798
 20
223.2230773366619
 30
0.0
 10
350.438642632513
 20
223.1729855288668
 30
0.0
 10
350.4719568425643
 20
223.147922157218
 30
0.0
 11
350.2719568425643
 21
223.2978588389046
 31
0.0
 11
350.3719718127432
 21
223.2230557153269
 31
0.0
 11
350.4719568425643
 21
223.147922157218
 31
0.0
  0
SPLINE
  5
367
330
1F
100
AcDbEntity
  8
0
  6
Continuous
 62
     7
100
AcDbSpline
210
0.0
220
0.0
230
1.0
 70
     8
 71
     3
 72
     9
 73
     5
 74
     3
 42
0.000000001
 43
0.0000000001
 44
0.00000001
 40
0.0
 40
0.0
 40
0.0
 40
0.0
 40
0.1288749274936265
 40
0.2578812227083148
 40
0.2578812227083148
 40
0.2578812227083148
 40
0.2578812227083148
 10
267.4719568425643
 20
221.8972611308701
 30
0.0
 10
267.5053176189557
 20
221.8701968061363
 30
0.0
 10
267.5720731651863
 20
221.8160405533277
 30
0.0
 10
267.638650982478
 20
221.7616659551323
 30
0.0
 10
267.6719568425643
 20
221.7344647987493
 30
0.0
 11
267.4719568425643
 21
221.8972611308701
 31
0.0
 11
267.5719947784629
 21
221.8160136181669
 31
0.0
 11
267.6719568425643
 21
221.7344647987493
 31
0.0
  0
SPLINE
  5
368
330
1F
100
AcDbEntity
  8
0
  6
Continuous
 62
     7
100
AcDbSpline
210
0.0
220
0.0
230
1.0
 70
     8
 71
     3
 72
     9
 73
     5
 74
     3
 42
0.000000001
 43
0.0000000001
 44
0.00000001
 40
0.0
 40
0.0
 40
0.0
 40
0.0
 40
0.1266245498492166
 40
0.2534044791943421
 40
0.2534044791943421
 40
0.2534044791943421
 40
0.2534044791943421
 10
267.4719568425643
 20
222.6896226053833
 30
0.0
 10
267.5053128876294
 20
222.6637593547407
 30
0.0
 10
267.572065896298
 20
222.612001101173
 30
0.0
 10
267.6386462562612
 20
222.5600209447479
 30
0.0
 10
267.6719568425643
 20
222.5340149223594
 30
0.0
 11
267.4719568425643
 21
222.6896226053833
 31
0.0
 11
267.5719818623743
 21
222.6119774378626
 31
0.0
 11
267.6719568425643
 21
222.5340149223594
 31
0.0
  0
SPLINE
  5
369
330
1F
100
AcDbEntity
  8
0
  6
Continuous
 62
     7
100
AcDbSpline
210
0.0
220
0.0
230
1.0
 70
     8
 71
     3
 72
     9
 73
     5
 74
     3
 42
0.000000001
 43
0.0000000001
 44
0.00000001
 40
0.0
 40
0.0
 40
0.0
 40
0.0
 40
0.1244699077504726
 40
0.2491187592136294
 40
0.2491187592136294
 40
0.2491187592136294
 40
0.2491187592136294
 10
267.4719568425643
 20
223.4463851874315
 30
0.0
 10
267.5053083694609
 20
223.4217053176318
 30
0.0
 10
267.5720593590411
 20
223.3723100810435
 30
0.0
 10
267.6386417431762
 20
223.3226878063114
 30
0.0
 10
267.6719568425643
 20
223.2978588389046
 30
0.0
 11
267.4719568425643
 21
223.4463851874315
 31
0.0
 11
267.5719693264819
 21
223.3722888919852
 31
0.0
 11
267.6719568425643
 21
223.2978588389046
 31
0.0
  0
SPLINE
  5
36A
330
1F
100
AcDbEntity
  8
0
  6
Continuous
 62
     7
100
AcDbSpline
210
0.0
220
0.0
230
1.0
 70
     8
 71
     3
 72
     9
 73
     5
 74
     3
 42
0.000000001
 43
0.0000000001
 44
0.00000001
 40
0.0
 40
0.0
 40
0.0
 40
0.0
 40
0.1248939612393846
 40
0.2499621735860622
 40
0.2499621735860622
 40
0.2499621735860622
 40
0.2499621735860622
 10
267.6719568425643
 20
223.2978588389046
 30
0.0
 10
267.6386044253098
 20
223.2729432641671
 30
0.0
 10
267.5718530697487
 20
223.2230773366619
 30
0.0
 10
267.5052710526156
 20
223.1729855288667
 30
0.0
 10
267.4719568425643
 20
223.147922157218
 30
0.0
 11
267.6719568425643
 21
223.2978588389046
 31
0.0
 11
267.5719418723854
 21
223.2230557153269
 31
0.0
 11
267.4719568425643
 21
223.147922157218
 31
0.0
  0
SPLINE
  5
36B
330
1F
100
AcDbEntity
  8
0
  6
Continuous
 62
     7
100
AcDbSpline
210
0.0
220
0.0
230
1.0
 70
     8
 71
     3
 72
     9
 73
     5
 74
     3
 42
0.000000001
 43
0.0000000001
 44
0.00000001
 40
0.0
 40
0.0
 40
0.0
 40
0.0
 40
0.1293380687356679
 40
0.2588026189299875
 40
0.2588026189299875
 40
0.2588026189299875
 40
0.2588026189299875
 10
267.6719568425643
 20
221.7344647987493
 30
0.0
 10
267.6385950869767
 20
221.707157290226
 30
0.0
 10
267.5718389635713
 20
221.6525155533322
 30
0.0
 10
267.5052617244923
 20
221.5976559992649
 30
0.0
 10
267.4719568425643
 20
221.5702128090815
 30
0.0
 11
267.6719568425643
 21
221.7344647987493
 31
0.0
 11
267.5719162595138
 21
221.6524878643713
 31
0.0
 11
267.4719568425643
 21
221.5702128090815
 31
0.0
  0
SPLINE
  5
36C
330
1F
100
AcDbEntity
  8
0
  6
Continuous
 62
     7
100
AcDbSpline
210
0.0
220
0.0
230
1.0
 70
     8
 71
     3
 72
     9
 73
     5
 74
     3
 42
0.000000001
 43
0.0000000001
 44
0.00000001
 40
0.0
 40
0.0
 40
0.0
 40
0.0
 40
0.1124103684653022
 40
0.2307444337845074
 40
0.2307444337845074
 40
0.2307444337845074
 40
0.2307444337845074
 10
267.6719568425642
 20
220.9802355175839
 30
0.0
 10
267.6386874057099
 20
220.9975125490574
 30
0.0
 10
267.5703953399114
 20
221.0329770784043
 30
0.0
 10
267.5053264897934
 20
221.0740616621692
 30
0.0
 10
267.4719568425643
 20
221.0951313268895
 30
0.0
 11
267.6719568425642
 21
220.9802355175839
 31
0.0
 11
267.5729134980853
 21
221.0334004206315
 31
0.0
 11
267.4719568425643
 21
221.0951313268895
 31
0.0
  0
SPLINE
  5
36D
330
1F
100
AcDbEntity
  8
0
  6
Continuous
 62
     7
100
AcDbSpline
210
0.0
220
0.0
230
1.0
 70
     8
 71
     3
 72
     9
 73
     5
 74
     3
 42
0.000000001
 43
0.0000000001
 44
0.00000001
 40
0.0
 40
0.0
 40
0.0
 40
0.0
 40
0.1040457974012713
 40
0.2164353805888532
 40
0.2164353805888532
 40
0.2164353805888532
 40
0.2164353805888532
 10
267.4719568425643
 20
220.8979285022777
 30
0.0
 10
267.5047771320856
 20
220.9092336557658
 30
0.0
 10
267.5730496743889
 20
220.9327505800516
 30
0.0
 10
267.6381512142187
 20
220.9640055624724
 30
0.0
 10
267.6719568425642
 20
220.9802355175839
 30
0.0
 11
267.4719568425643
 21
220.8979285022777
 31
0.0
 11
267.5696849017661
 21
220.9336322063141
 31
0.0
 11
267.6719568425642
 21
220.9802355175839
 31
0.0
  0
SPLINE
  5
36E
330
1F
100
AcDbEntity
  8
0
  6
Continuous
 62
     7
100
AcDbSpline
210
0.0
220
0.0
230
1.0
 70
     8
 71
     3
 72
     9
 73
     5
 74
     3
 42
0.000000001
 43
0.0000000001
 44
0.00000001
 40
0.0
 40
0.0
 40
0.0
 40
0.0
 40
0.1270664196165042
 40
0.2542834628308899
 40
0.2542834628308899
 40
0.2542834628308899
 40
0.2542834628308899
 10
267.6719568425643
 20
222.5340149223594
 30
0.0
 10
267.6385998708744
 20
222.507913173591
 30
0.0
 10
267.5718463987283
 20
222.455678719496
 30
0.0
 10
267.5052665032579
 20
222.4032231976431
 30
0.0
 10
267.4719568425643
 20
222.3769798929608
 30
0.0
 11
267.6719568425643
 21
222.5340149223594
 31
0.0
 11
267.5719292764295
 21
222.4556544667066
 31
0.0
 11
267.4719568425643
 21
222.3769798929608
 31
0.0
  0
SPLINE
  5
36F
330
1F
100
AcDbEntity
  8
0
  6
Continuous
 62
     7
100
AcDbSpline
210
0.0
220
0.0
230
1.0
 70
     8
 71
     3
 72
     9
 73
     5
 74
     3
 42
0.000000001
 43
0.0000000001
 44
0.00000001
 40
0.0
 40
0.0
 40
0.0
 40
0.0
 40
0.1124103684654024
 40
0.2307444337846561
 40
0.2307444337846561
 40
0.2307444337846561
 40
0.2307444337846561
 10
350.2719568425642
 20
220.9802355175839
 30
0.0
 10
350.3052262794184
 20
220.9975125490574
 30
0.0
 10
350.3735183452172
 20
221.0329770784042
 30
0.0
 10
350.4385871953351
 20
221.0740616621692
 30
0.0
 10
350.4719568425643
 20
221.0951313268895
 30
0.0
 11
350.2719568425642
 21
220.9802355175839
 31
0.0
 11
350.3710001870432
 21
221.0334004206315
 31
0.0
 11
350.4719568425643
 21
221.0951313268895
 31
0.0
  0
SPLINE
  5
370
330
1F
100
AcDbEntity
  8
0
  6
Continuous
 62
     7
100
AcDbSpline
210
0.0
220
0.0
230
1.0
 70
     8
 71
     3
 72
     9
 73
     5
 74
     3
 42
0.000000001
 43
0.0000000001
 44
0.00000001
 40
0.0
 40
0.0
 40
0.0
 40
0.0
 40
0.1040457974013247
 40
0.2164353805890101
 40
0.2164353805890101
 40
0.2164353805890101
 40
0.2164353805890101
 10
350.4719568425643
 20
220.8979285022777
 30
0.0
 10
350.4391365530429
 20
220.9092336557657
 30
0.0
 10
350.3708640107395
 20
220.9327505800516
 30
0.0
 10
350.3057624709097
 20
220.9640055624724
 30
0.0
 10
350.2719568425642
 20
220.9802355175839
 30
0.0
 11
350.4719568425643
 21
220.8979285022777
 31
0.0
 11
350.3742287833624
 21
220.9336322063141
 31
0.0
 11
350.2719568425642
 21
220.9802355175839
 31
0.0
  0
SPLINE
  5
371
330
1F
100
AcDbEntity
  8
0
  6
Continuous
 62
     7
100
AcDbSpline
210
0.0
220
0.0
230
1.0
 70
     8
 71
     3
 72
    13
 73
     9
 74
     7
 42
0.000000001
 43
0.0000000001
 44
0.00000001
 40
0.0
 40
0.0
 40
0.0
 40
0.0
 40
0.429337756501655
 40
0.8664276087425502
 40
1.31372040396969
 40
1.771362526952182
 40
2.237308090893079
 40
2.707848273441023
 40
2.707848273441023
 40
2.707848273441023
 40
2.707848273441023
 10
280.4124877531178
 20
218.6890857957699
 30
0.0
 10
280.4481386676394
 20
218.5496719492652
 30
0.0
 10
280.5200842211223
 20
218.268327012892
 30
0.0
 10
280.7608855285943
 20
217.8943288660059
 30
0.0
 10
281.0830186515028
 20
217.5790947017504
 30
0.0
 10
281.4786604904215
 20
217.3435254953219
 30
0.0
 10
281.9231101257657
 20
217.1905616145139
 30
0.0
 10
282.2358856546482
 20
217.1713767727186
 30
0.0
 10
282.3930406949091
 20
217.1617372964125
 30
0.0
 11
280.4124877531178
 21
218.6890857957699
 31
0.0
 11
280.5407706830126
 21
218.2793610088067
 31
0.0
 11
280.7712720829256
 21
217.9079897039599
 31
0.0
 11
281.091272504936
 21
217.5954667822298
 31
0.0
 11
281.483111671753
 21
217.3590383960512
 31
0.0
 11
281.9251662374553
 21
217.2117528535393
 31
0.0
 11
282.3930406949091
 21
217.1617372964125
 31
0.0
  0
SPLINE
  5
372
330
1F
100
AcDbEntity
  8
0
  6
Continuous
 62
     7
100
AcDbSpline
210
0.0
220
0.0
230
1.0
 70
     8
 71
     3
 72
    13
 73
     9
 74
     7
 42
0.000000001
 43
0.0000000001
 44
0.00000001
 40
0.0
 40
0.0
 40
0.0
 40
0.0
 40
0.4705401825479436
 40
0.9364857464889578
 40
1.394127869471401
 40
1.841420664698622
 40
2.278510516939542
 40
2.707848273441173
 40
2.707848273441173
 40
2.707848273441173
 40
2.707848273441173
 10
282.2812621917817
 20
217.7956646890235
 30
0.0
 10
282.1241071515208
 20
217.8053041653297
 30
0.0
 10
281.8113316226382
 20
217.8244890071249
 30
0.0
 10
281.3668819872942
 20
217.9774528879329
 30
0.0
 10
280.9712401483753
 20
218.2130220943616
 30
0.0
 10
280.6491070254667
 20
218.5282562586168
 30
0.0
 10
280.4083057179948
 20
218.9022544055031
 30
0.0
 10
280.3363601645119
 20
219.1835993418763
 30
0.0
 10
280.3007092499904
 20
219.323013188381
 30
0.0
 11
282.2812621917817
 21
217.7956646890235
 31
0.0
 11
281.8133877343279
 21
217.8456802461503
 31
0.0
 11
281.3713331686255
 21
217.9929657886622
 31
0.0
 11
280.9794940018086
 21
218.2293941748409
 31
0.0
 11
280.6594935797981
 21
218.5419170965709
 31
0.0
 11
280.4289921798851
 21
218.9132884014178
 31
0.0
 11
280.3007092499904
 21
219.323013188381
 31
0.0
  0
SPLINE
  5
373
330
1F
100
AcDbEntity
  8
0
  6
Continuous
 62
     7
100
AcDbSpline
210
0.0
220
0.0
230
1.0
 70
     8
 71
     3
 72
    11
 73
     7
 74
     5
 42
0.000000001
 43
0.0000000001
 44
0.00000001
 40
0.0
 40
0.0
 40
0.0
 40
0.0
 40
0.0000957044694329
 40
0.0001746120484685
 40
0.0002536680722753
 40
0.0003494571826935
 40
0.0003494571826935
 40
0.0003494571826935
 40
0.0003494571826935
 10
348.4719568425643
 20
233.1585258744935
 30
0.0
 10
348.4719586541744
 20
233.1585580486338
 30
0.0
 10
348.4719619725241
 20
233.1586167478527
 30
0.0
 10
348.4720058612599
 20
233.1586934327792
 30
0.0
 10
348.4720825441319
 20
233.1587374221582
 30
0.0
 10
348.4721413237476
 20
233.1587407457338
 30
0.0
 10
348.4721735274609
 20
233.1587425593901
 30
0.0
 11
348.4719568425643
 21
233.1585258744935
 31
0.0
 11
348.4719703615937
 21
233.1586206225704
 31
0.0
 11
348.4720109203089
 21
233.1586883122292
 31
0.0
 11
348.4720786977663
 21
233.1587290131706
 31
0.0
 11
348.4721735274609
 21
233.1587425593901
 31
0.0
  0
SPLINE
  5
374
330
1F
100
AcDbEntity
  8
0
  6
Continuous
 62
     7
100
AcDbSpline
210
0.0
220
0.0
230
1.0
 70
     8
 71
     3
 72
    11
 73
     7
 74
     5
 42
0.000000001
 43
0.0000000001
 44
0.00000001
 40
0.0
 40
0.0
 40
0.0
 40
0.0
 40
0.0000957044687938
 40
0.0001746120475518
 40
0.0002536212966363
 40
0.0003494575540979
 40
0.0003494575540979
 40
0.0003494575540979
 40
0.0003494575540979
 10
269.4719568425642
 20
233.1585258744935
 30
0.0
 10
269.4719550309622
 20
233.1585580486563
 30
0.0
 10
269.4719517126275
 20
233.1586167479165
 30
0.0
 10
269.471907831889
 20
233.1586934184329
 30
0.0
 10
269.4718311589853
 20
233.1587374186175
 30
0.0
 10
269.4717723779444
 20
233.1587407439045
 30
0.0
 10
269.4717401576676
 20
233.1587425593901
 30
0.0
 11
269.4719568425642
 21
233.1585258744935
 31
0.0
 11
269.4719433235349
 21
233.1586206225704
 31
0.0
 11
269.4719027648196
 21
233.1586883122292
 31
0.0
 11
269.4718350328218
 21
233.1587289980105
 31
0.0
 11
269.4717401576676
 21
233.1587425593901
 31
0.0
  0
SPLINE
  5
375
330
1F
100
AcDbEntity
  8
0
  6
Continuous
 62
     7
100
AcDbSpline
210
0.0
220
0.0
230
1.0
 70
     8
 71
     3
 72
    11
 73
     7
 74
     5
 42
0.000000001
 43
0.0000000001
 44
0.00000001
 40
0.0
 40
0.0
 40
0.0
 40
0.0
 40
0.0157548211968069
 40
0.0279469206837654
 40
0.0364913256920704
 40
0.0450970654315275
 40
0.0450970654315275
 40
0.0450970654315275
 40
0.0450970654315275
 10
346.9719568425643
 20
236.8953095153878
 30
0.0
 10
346.9718099730298
 20
236.8900398177709
 30
0.0
 10
346.9715494403546
 20
236.8806920883103
 30
0.0
 10
346.9687021516537
 20
236.8688535334429
 30
0.0
 10
346.9627511665761
 20
236.8601786654066
 30
0.0
 10
346.9568749791532
 20
236.8592223973103
 30
0.0
 10
346.9539263756993
 20
236.8587425593901
 30
0.0
 11
346.9719568425643
 21
236.8953095153878
 31
0.0
 11
346.9709060291436
 21
236.8795897849817
 31
0.0
 11
346.9675230273427
 21
236.8678764294985
 31
0.0
 11
346.9621684147538
 21
236.8612179676058
 31
0.0
 11
346.9539263756993
 21
236.8587425593901
 31
0.0
  0
SPLINE
  5
376
330
1F
100
AcDbEntity
  8
0
  6
Continuous
 62
     7
100
AcDbSpline
210
0.0
220
0.0
230
1.0
 70
     8
 71
     3
 72
    11
 73
     7
 74
     5
 42
0.000000001
 43
0.0000000001
 44
0.00000001
 40
0.0
 40
0.0
 40
0.0
 40
0.0
 40
0.0053828362278342
 40
0.0126563475289409
 40
0.024573266752574
 40
0.0402234446041808
 40
0.0402234446041808
 40
0.0402234446041808
 40
0.0402234446041808
 10
348.4616850884704
 20
236.8587425593901
 30
0.0
 10
348.4634371736865
 20
236.8594196463541
 30
0.0
 10
348.467556738772
 20
236.8610116546407
 30
0.0
 10
348.4700469484673
 20
236.8696192841419
 30
0.0
 10
348.4717872655755
 20
236.8807876310395
 30
0.0
 10
348.471895432901
 20
236.8900507359972
 30
0.0
 10
348.4719568425643
 20
236.8953095153878
 30
0.0
 11
348.4616850884704
 21
236.8587425593901
 31
0.0
 11
348.4664281712734
 21
236.8612877816756
 31
0.0
 11
348.4694347263071
 21
236.8679108243906
 31
0.0
 11
348.4713636709266
 21
236.8796705910716
 31
0.0
 11
348.4719568425643
 21
236.8953095153878
 31
0.0
  0
SPLINE
  5
377
330
1F
100
AcDbEntity
  8
0
  6
Continuous
 62
     7
100
AcDbSpline
210
0.0
220
0.0
230
1.0
 70
     8
 71
     3
 72
     9
 73
     5
 74
     3
 42
0.000000001
 43
0.0000000001
 44
0.00000001
 40
0.0
 40
0.0
 40
0.0
 40
0.0
 40
0.0472086146307512
 40
0.1118212142590559
 40
0.1118212142590559
 40
0.1118212142590559
 40
0.1118212142590559
 10
338.88379335221
 20
236.8587425593901
 30
0.0
 10
338.8994839305499
 20
236.8547528571205
 30
0.0
 10
338.9366495866697
 20
236.8453025862831
 30
0.0
 10
338.9590268221511
 20
236.8135699891584
 30
0.0
 10
338.9719568425642
 20
236.7952342324938
 30
0.0
 11
338.88379335221
 21
236.8587425593901
 31
0.0
 11
338.9282292649601
 21
236.8428019452479
 31
0.0
 11
338.9719568425642
 21
236.7952342324938
 31
0.0
  0
SPLINE
  5
378
330
1F
100
AcDbEntity
  8
0
  6
Continuous
 62
     7
100
AcDbSpline
210
0.0
220
0.0
230
1.0
 70
     8
 71
     3
 72
    13
 73
     9
 74
     7
 42
0.000000001
 43
0.0000000001
 44
0.00000001
 40
0.0
 40
0.0
 40
0.0
 40
0.0
 40
0.0284770985932277
 40
0.0827646823286897
 40
0.164295026691099
 40
0.2687918628656979
 40
0.3897035845335697
 40
0.5191479431948737
 40
0.5191479431948737
 40
0.5191479431948737
 40
0.5191479431948737
 10
338.88379335221
 20
235.3587425593901
 30
0.0
 10
338.8920626814709
 20
235.3536096552251
 30
0.0
 10
338.9160963333463
 20
235.3386916043459
 30
0.0
 10
338.9304437127839
 20
235.2816037854916
 30
0.0
 10
338.9493300793843
 20
235.2056919991374
 30
0.0
 10
338.9615056088645
 20
235.1031434458425
 30
0.0
 10
338.9703861825245
 20
234.9854283760717
 30
0.0
 10
338.9714215232318
 20
234.9019198771571
 30
0.0
 10
338.9719568425642
 20
234.8587425593901
 30
0.0
 11
338.88379335221
 21
235.3587425593901
 31
0.0
 11
338.906611736513
 21
235.3417053437739
 31
0.0
 11
338.9278750973872
 21
235.2917552612823
 31
0.0
 11
338.9461343374721
 21
235.212295855724
 31
0.0
 11
338.9601451745431
 21
235.1087425593901
 31
0.0
 11
338.968952721775
 21
234.98815204744
 31
0.0
 11
338.9719568425642
 21
234.8587425593901
 31
0.0
  0
SPLINE
  5
379
330
1F
100
AcDbEntity
  8
0
  6
Continuous
 62
     7
100
AcDbSpline
210
0.0
220
0.0
230
1.0
 70
     8
 71
     3
 72
    13
 73
     9
 74
     7
 42
0.000000001
 43
0.0000000001
 44
0.00000001
 40
0.0
 40
0.0
 40
0.0
 40
0.0
 40
0.0284770985931366
 40
0.0827646823285986
 40
0.1642950266910207
 40
0.2687918628656271
 40
0.3897035845334947
 40
0.5191479431948001
 40
0.5191479431948001
 40
0.5191479431948001
 40
0.5191479431948001
 10
279.0601203329185
 20
235.3587425593901
 30
0.0
 10
279.0518510036575
 20
235.3536096552251
 30
0.0
 10
279.0278173517822
 20
235.3386916043459
 30
0.0
 10
279.0134699723449
 20
235.2816037854917
 30
0.0
 10
278.9945836057439
 20
235.2056919991373
 30
0.0
 10
278.9824080762641
 20
235.1031434458426
 30
0.0
 10
278.9735275026039
 20
234.9854283760718
 30
0.0
 10
278.9724921618968
 20
234.901919877157
 30
0.0
 10
278.9719568425642
 20
234.8587425593901
 30
0.0
 11
279.0601203329185
 21
235.3587425593901
 31
0.0
 11
279.0373019486156
 21
235.3417053437739
 31
0.0
 11
279.0160385877414
 21
235.2917552612823
 31
0.0
 11
278.9977793476564
 21
235.212295855724
 31
0.0
 11
278.9837685105854
 21
235.1087425593901
 31
0.0
 11
278.9749609633535
 21
234.98815204744
 31
0.0
 11
278.9719568425642
 21
234.8587425593901
 31
0.0
  0
SPLINE
  5
37A
330
1F
100
AcDbEntity
  8
0
  6
Continuous
 62
     7
100
AcDbSpline
210
0.0
220
0.0
230
1.0
 70
     8
 71
     3
 72
    11
 73
     7
 74
     5
 42
0.000000001
 43
0.0000000001
 44
0.00000001
 40
0.0
 40
0.0
 40
0.0
 40
0.0
 40
0.0053828362278806
 40
0.0126563475290439
 40
0.0245732667619955
 40
0.0402234446042806
 40
0.0402234446042806
 40
0.0402234446042806
 40
0.0402234446042806
 10
269.4822285966581
 20
236.8587425593901
 30
0.0
 10
269.4804765114418
 20
236.859419646354
 30
0.0
 10
269.4763569463565
 20
236.8610116546406
 30
0.0
 10
269.4738667366601
 20
236.8696192841453
 30
0.0
 10
269.472126419553
 20
236.8807876310426
 30
0.0
 10
269.4720182522274
 20
236.8900507360003
 30
0.0
 10
269.4719568425642
 20
236.8953095153878
 30
0.0
 11
269.4822285966581
 21
236.8587425593901
 31
0.0
 11
269.477485513855
 21
236.8612877816755
 31
0.0
 11
269.4744789588214
 21
236.8679108243906
 31
0.0
 11
269.472550014201
 21
236.8796705910809
 31
0.0
 11
269.4719568425642
 21
236.8953095153878
 31
0.0
  0
SPLINE
  5
37B
330
1F
100
AcDbEntity
  8
0
  6
Continuous
 62
     7
100
AcDbSpline
210
0.0
220
0.0
230
1.0
 70
     8
 71
     3
 72
    11
 73
     7
 74
     5
 42
0.000000001
 43
0.0000000001
 44
0.00000001
 40
0.0
 40
0.0
 40
0.0
 40
0.0
 40
0.0086132140734253
 40
0.017167972142534
 40
0.0293539677530846
 40
0.0450967300322123
 40
0.0450967300322123
 40
0.0450967300322123
 40
0.0450967300322123
 10
270.9899873094292
 20
236.8587425593901
 30
0.0
 10
270.9870360690781
 20
236.8592234981078
 30
0.0
 10
270.9811536220359
 20
236.8601821236699
 30
0.0
 10
270.9752071863741
 20
236.868866481512
 30
0.0
 10
270.9723637216892
 20
236.8807019840474
 30
0.0
 10
270.9721035126789
 20
236.8900437745222
 30
0.0
 10
270.9719568425642
 20
236.8953095153878
 30
0.0
 11
270.9899873094292
 21
236.8587425593901
 31
0.0
 11
270.9817388387381
 21
236.8612225362272
 31
0.0
 11
270.9763825694036
 21
236.8678929483978
 31
0.0
 11
270.9730057873425
 21
236.8796017459346
 31
0.0
 11
270.9719568425642
 21
236.8953095153878
 31
0.0
  0
SPLINE
  5
37C
330
1F
100
AcDbEntity
  8
0
  6
Continuous
 62
     7
100
AcDbSpline
210
0.0
220
0.0
230
1.0
 70
     8
 71
     3
 72
     9
 73
     5
 74
     3
 42
0.000000001
 43
0.0000000001
 44
0.00000001
 40
0.0
 40
0.0
 40
0.0
 40
0.0
 40
0.0472086146306977
 40
0.1118212142590408
 40
0.1118212142590408
 40
0.1118212142590408
 40
0.1118212142590408
 10
279.0601203329185
 20
236.8587425593901
 30
0.0
 10
279.0444297545786
 20
236.8547528571206
 30
0.0
 10
279.0072640984587
 20
236.8453025862831
 30
0.0
 10
278.9848868629772
 20
236.8135699891585
 30
0.0
 10
278.9719568425642
 20
236.7952342324938
 30
0.0
 11
279.0601203329185
 21
236.8587425593901
 31
0.0
 11
279.0156844201684
 21
236.8428019452479
 31
0.0
 11
278.9719568425642
 21
236.7952342324938
 31
0.0
  0
SPLINE
  5
37D
330
1F
100
AcDbEntity
  8
0
  6
Continuous
 62
     7
100
AcDbSpline
210
0.0
220
0.0
230
1.0
 70
     8
 71
     3
 72
    13
 73
     9
 74
     7
 42
0.000000001
 43
0.0000000001
 44
0.00000001
 40
0.0
 40
0.0
 40
0.0
 40
0.0
 40
0.429337756501604
 40
0.8664276087424392
 40
1.313720403969701
 40
1.771362526952242
 40
2.237308090893139
 40
2.707848273441139
 40
2.707848273441139
 40
2.707848273441139
 40
2.707848273441139
 10
337.5314259320106
 20
218.6890857957699
 30
0.0
 10
337.4957750174891
 20
218.5496719492652
 30
0.0
 10
337.4238294640061
 20
218.2683270128921
 30
0.0
 10
337.1830281565344
 20
217.8943288660058
 30
0.0
 10
336.8608950336258
 20
217.5790947017506
 30
0.0
 10
336.4652531947069
 20
217.3435254953219
 30
0.0
 10
336.0208035593627
 20
217.1905616145139
 30
0.0
 10
335.7080280304802
 20
217.1713767727186
 30
0.0
 10
335.5508729902193
 20
217.1617372964125
 30
0.0
 11
337.5314259320106
 21
218.6890857957699
 31
0.0
 11
337.4031430021159
 21
218.2793610088067
 31
0.0
 11
337.172641602203
 21
217.9079897039599
 31
0.0
 11
336.8526411801925
 21
217.5954667822298
 31
0.0
 11
336.4608020133755
 21
217.3590383960512
 31
0.0
 11
336.0187474476731
 21
217.2117528535393
 31
0.0
 11
335.5508729902193
 21
217.1617372964125
 31
0.0
  0
SPLINE
  5
37E
330
1F
100
AcDbEntity
  8
0
  6
Continuous
 62
     7
100
AcDbSpline
210
0.0
220
0.0
230
1.0
 70
     8
 71
     3
 72
    13
 73
     9
 74
     7
 42
0.000000001
 43
0.0000000001
 44
0.00000001
 40
0.0
 40
0.0
 40
0.0
 40
0.0
 40
0.4705401825480001
 40
0.9364857464889603
 40
1.394127869471404
 40
1.841420664698584
 40
2.278510516939473
 40
2.707848273441138
 40
2.707848273441138
 40
2.707848273441138
 40
2.707848273441138
 10
335.6626514933468
 20
217.7956646890235
 30
0.0
 10
335.8198065336076
 20
217.8053041653296
 30
0.0
 10
336.1325820624903
 20
217.824489007125
 30
0.0
 10
336.5770316978345
 20
217.9774528879329
 30
0.0
 10
336.9726735367531
 20
218.2130220943617
 30
0.0
 10
337.2948066596618
 20
218.5282562586169
 30
0.0
 10
337.5356079671335
 20
218.9022544055031
 30
0.0
 10
337.6075535206165
 20
219.1835993418763
 30
0.0
 10
337.6432044351381
 20
219.323013188381
 30
0.0
 11
335.6626514933468
 21
217.7956646890235
 31
0.0
 11
336.1305259508006
 21
217.8456802461503
 31
0.0
 11
336.572580516503
 21
217.9929657886622
 31
0.0
 11
336.9644196833199
 21
218.2293941748409
 31
0.0
 11
337.2844201053304
 21
218.5419170965709
 31
0.0
 11
337.5149215052433
 21
218.9132884014178
 31
0.0
 11
337.6432044351381
 21
219.323013188381
 31
0.0
  0
MTEXT
  5
37F
330
1F
100
AcDbEntity
  8
1
 62
     7
100
AcDbMText
 10
513.3526013774856
 20
20.12127884151207
 30
0.0
 40
9.0
 41
0.0
 71
     5
 72
     1
  1
1:2
  7
CONVERTER_11
 73
     1
 44
1.32052821128451
  0
MTEXT
  5
380
330
1F
100
AcDbEntity
  8
1
 62
     7
100
AcDbMText
 10
241.2000000000002
 20
17.49999999999997
 30
0.0
 40
6.0
 41
0.0
 71
     4
 72
     1
  1
T.Tedeschi
  7
CONVERTER_11
 73
     1
 44
1.32052821128451
  0
MTEXT
  5
381
330
1F
100
AcDbEntity
  8
1
 62
     7
100
AcDbMText
 10
241.2000000000002
 20
32.52127884151193
 30
0.0
 40
6.0
 41
0.0
 71
     4
 72
     1
  1
20/04/09
  7
CONVERTER_11
 73
     1
 44
1.32052821128451
  0
MTEXT
  5
382
330
1F
100
AcDbEntity
  8
1
 62
     7
100
AcDbMText
 10
288.5526013774856
 20
24.99999999999997
 30
0.0
 40
9.0
 41
0.0
 71
     4
 72
     1
  1
CVI 10 L\Pbulkhead housing 1 lev
  7
CONVERTER_11
 73
     1
 44
0.90036014405762
  0
MTEXT
  5
383
330
1F
100
AcDbEntity
  8
Symbole_TC_020513_DIN_
 62
     7
100
AcDbMText
 10
68.14121835131702
 20
294.2824241458101
 30
0.0
 40
7.0
 41
0.0
 71
     4
 72
     1
  1
panel\Pcut\Pout
  7
CONVERTER_11
 73
     1
 44
0.90036014405762
  0
MTEXT
  5
385
330
1F
100
AcDbEntity
  8
DISEGNO
 62
     7
100
AcDbMText
 10
472.4053964460333
 20
242.3587782078791
 30
0.0
 40
1.8
 41
0.0
 71
     9
 72
     1
  1
OPEN
  7
CONVERTER_12
 73
     1
 44
1.0
  0
MTEXT
  5
387
330
1F
100
AcDbEntity
  8
DISEGNO
 62
     7
100
AcDbMText
 10
490.6054043616201
 20
233.858742629195
 30
0.0
 40
1.8
 41
0.0
 71
     9
 72
     1
  1
CLOSE
  7
CONVERTER_13
 73
     1
 44
1.0
  0
DIMENSION
  5
393
330
1F
100
AcDbEntity
  8
1
100
AcDbDimension
  2
*D3
 10
158.5509203319262
 20
251.3588047757851
 30
0.0
 11
151.5509203319262
 21
209.8588047757851
 31
0.0
 70
    32
  1
<>
 71
     5
 42
-1.0
 53
90.0
  3
ME10_DIM_10
100
AcDbAlignedDimension
 13
133.9550978381452
 23
168.3588047757851
 33
0.0
 14
133.9550978381452
 24
251.3588047757851
 34
0.0
 50
90.0
100
AcDbRotatedDimension
  0
DIMENSION
  5
39E
330
1F
100
AcDbEntity
  8
1
100
AcDbDimension
  2
*D4
 10
75.03084752382892
 20
242.3588047757851
 30
0.0
 11
68.03084752382892
 21
209.8588047757851
 31
0.0
 70
    32
  1
<>
 71
     5
 42
-1.0
 53
90.0
  3
ME10_DIM_11
100
AcDbAlignedDimension
 13
93.20509783814553
 23
177.3588047757851
 33
0.0
 14
93.20509783814555
 24
242.3588047757851
 34
0.0
 50
90.0
100
AcDbRotatedDimension
  0
DIMENSION
  5
3A9
330
1F
100
AcDbEntity
  8
1
100
AcDbDimension
  2
*D5
 10
94.70509783814549
 20
267.7492290460612
 30
0.0
 11
110.7050978381454
 21
274.7492290460612
 31
0.0
 70
    32
  1
<>
 71
     5
 42
-1.0
 53
0.00013888888889
  3
ME10_DIM_12
100
AcDbAlignedDimension
 13
126.7050978381452
 23
258.6088047757851
 33
0.0
 14
94.70509783814549
 24
258.6088047757851
 34
0.0
100
AcDbRotatedDimension
  0
DIMENSION
  5
3B4
330
1F
100
AcDbEntity
  8
1
100
AcDbDimension
  2
*D6
 10
93.20509783814553
 20
143.9973493997451
 30
0.0
 11
110.7050978381454
 21
150.9973493997451
 31
0.0
 70
    32
  1
<>
 71
     5
 42
-1.0
 53
0.00013888888889
  3
ME10_DIM_13
100
AcDbAlignedDimension
 13
128.2050978381452
 23
177.3588047757851
 33
0.0
 14
93.20509783814553
 24
177.3588047757851
 34
0.0
100
AcDbRotatedDimension
  0
DIMENSION
  5
3BF
330
1F
100
AcDbEntity
  8
1
100
AcDbDimension
  2
*D7
 10
261.2219568425643
 20
176.7121648967205
 30
0.0
 11
308.9719568425643
 21
184.0121648967205
 31
0.0
 70
    32
  1
<>
 71
     5
 42
-1.0
 53
0.00013888888889
  3
ME10_DIM_14
100
AcDbAlignedDimension
 13
356.7219568425643
 23
200.8587425593901
 33
0.0
 14
261.2219568425643
 24
200.8587425593901
 34
0.0
100
AcDbRotatedDimension
  0
DIMENSION
  5
3CA
330
1F
100
AcDbEntity
  8
1
100
AcDbDimension
  2
*D8
 10
448.3554649775043
 20
176.7121648967205
 30
0.0
 11
471.1054649775043
 21
184.0121648967205
 31
0.0
 70
    32
  1
<>
 71
     5
 42
-1.0
 53
0.00013888888889
  3
ME10_DIM_15
100
AcDbAlignedDimension
 13
493.8554649775043
 23
200.8587425593901
 33
0.0
 14
448.3554649775043
 24
200.8587425593901
 34
0.0
100
AcDbRotatedDimension
  0
DIMENSION
  5
3D7
330
1F
100
AcDbEntity
  8
1
100
AcDbDimension
  2
*D9
 10
435.1831241000559
 20
206.8587425593901
 30
0.0
 11
428.1831241000559
 21
184.7379036759765
 31
0.0
 70
    32
  1
<>
 71
     5
 42
-1.0
 53
90.0
  3
ME10_DIM_16
100
AcDbAlignedDimension
 13
448.3554649775043
 23
200.8587425593901
 33
0.0
 14
449.7913499728183
 24
206.85874255939
 34
0.0
 50
90.0
100
AcDbRotatedDimension
  0
DIMENSION
  5
3E2
330
1F
100
AcDbEntity
  8
1
100
AcDbDimension
  2
*D10
 10
421.1335652035659
 20
229.5587425593901
 30
0.0
 11
414.1335652035659
 21
215.2087425593901
 31
0.0
 70
    32
  1
29
 71
     5
 42
-1.0
 53
90.0
  3
ME10_DIM_17
100
AcDbAlignedDimension
 13
448.3554649775043
 23
200.8587425593901
 33
0.0
 14
456.6054649775043
 24
229.55874255939
 34
0.0
 50
90.0
100
AcDbRotatedDimension
  0
DIMENSION
  5
3ED
330
1F
100
AcDbEntity
  8
1
100
AcDbDimension
  2
*D11
 10
448.3554649775043
 20
152.573625907248
 30
0.0
 11
482.9179360868862
 21
159.573625907248
 31
0.0
 70
    32
  1
70
 71
     5
 42
-1.0
 53
0.00013888888889
  3
ME10_DIM_18
100
AcDbAlignedDimension
 13
517.4804071962681
 23
209.85874255939
 33
0.0
 14
448.3554649775043
 24
200.8587425593901
 34
0.0
100
AcDbRotatedDimension
  0
INSERT
  5
3F5
330
1F
100
AcDbEntity
  8
1
100
AcDbBlockReference
  2
*D12
 10
0.0
 20
0.0
 30
0.0
  0
ENDSEC
  0
SECTION
  2
OBJECTS
  0
DICTIONARY
  5
C
330
0
100
AcDbDictionary
281
     1
  3
ACAD_GROUP
350
D
  3
ACAD_LAYOUT
350
1A
  3
ACAD_MATERIAL
350
3B
  3
ACAD_MLEADERSTYLE
350
3F8
  3
ACAD_MLINESTYLE
350
17
  3
ACAD_PLOTSETTINGS
350
19
  3
ACAD_PLOTSTYLENAME
350
E
  3
ACAD_VISUALSTYLE
350
2A
  3
AcDbVariableDictionary
350
3F6
  0
DICTIONARY
  5
D
102
{ACAD_REACTORS
330
C
102
}
330
C
100
AcDbDictionary
281
     1
  0
DICTIONARY
  5
1A
102
{ACAD_REACTORS
330
C
102
}
330
C
100
AcDbDictionary
281
     1
  3
Layout1
350
1E
  3
Layout2
350
26
  3
Model
350
22
  0
DICTIONARY
  5
3B
102
{ACAD_REACTORS
330
C
102
}
330
C
100
AcDbDictionary
281
     1
  3
ByBlock
350
3D
  3
ByLayer
350
3C
  3
Global
350
3E
  0
DICTIONARY
  5
3F8
102
{ACAD_REACTORS
330
C
102
}
330
C
100
AcDbDictionary
281
     1
  0
DICTIONARY
  5
17
102
{ACAD_REACTORS
330
C
102
}
330
C
100
AcDbDictionary
281
     1
  3
Standard
350
18
  0
DICTIONARY
  5
19
102
{ACAD_REACTORS
330
C
102
}
330
C
100
AcDbDictionary
281
     1
  0
ACDBDICTIONARYWDFLT
  5
E
102
{ACAD_REACTORS
330
C
102
}
330
C
100
AcDbDictionary
281
     1
  3
Normal
350
F
100
AcDbDictionaryWithDefault
340
F
  0
DICTIONARY
  5
2A
102
{ACAD_REACTORS
330
C
102
}
330
C
100
AcDbDictionary
281
     1
  3
2dWireframe
350
2F
  3
3D Hidden
350
31
  3
3dWireframe
350
30
  3
Basic
350
32
  3
Brighten
350
36
  3
ColorChange
350
3A
  3
Conceptual
350
34
  3
Dim
350
35
  3
Facepattern
350
39
  3
Flat
350
2B
  3
FlatWithEdges
350
2C
  3
Gouraud
350
2D
  3
GouraudWithEdges
350
2E
  3
Linepattern
350
38
  3
Realistic
350
33
  3
Thicken
350
37
  0
DICTIONARY
  5
3F6
102
{ACAD_REACTORS
330
C
102
}
330
C
100
AcDbDictionary
281
     1
  3
DIMASSOC
350
3F9
  3
HIDETEXT
350
3FA
  0
LAYOUT
  5
1E
102
{ACAD_REACTORS
330
1A
102
}
330
1A
100
AcDbPlotSettings
  1

  2
none_device
  4

  6

 40
0.0
 41
0.0
 42
0.0
 43
0.0
 44
0.0
 45
0.0
 46
0.0
 47
0.0
 48
0.0
 49
0.0
140
0.0
141
0.0
142
1.0
143
1.0
 70
   688
 72
     0
 73
     0
 74
     5
  7

 75
    16
147
1.0
148
0.0
149
0.0
100
AcDbLayout
  1
Layout1
 70
     1
 71
     1
 10
0.0
 20
0.0
 11
12.0
 21
9.0
 12
0.0
 22
0.0
 32
0.0
 14
1.00000000000000E+20
 24
1.00000000000000E+20
 34
1.00000000000000E+20
 15
-1.00000000000000E+20
 25
-1.00000000000000E+20
 35
-1.00000000000000E+20
146
0.0
 13
0.0
 23
0.0
 33
0.0
 16
1.0
 26
0.0
 36
0.0
 17
0.0
 27
1.0
 37
0.0
 76
     0
330
1B
  0
LAYOUT
  5
26
102
{ACAD_REACTORS
330
1A
102
}
330
1A
100
AcDbPlotSettings
  1

  2
none_device
  4

  6

 40
0.0
 41
0.0
 42
0.0
 43
0.0
 44
0.0
 45
0.0
 46
0.0
 47
0.0
 48
0.0
 49
0.0
140
0.0
141
0.0
142
1.0
143
1.0
 70
   688
 72
     0
 73
     0
 74
     5
  7

 75
    16
147
1.0
148
0.0
149
0.0
100
AcDbLayout
  1
Layout2
 70
     1
 71
     2
 10
0.0
 20
0.0
 11
0.0
 21
0.0
 12
0.0
 22
0.0
 32
0.0
 14
0.0
 24
0.0
 34
0.0
 15
0.0
 25
0.0
 35
0.0
146
0.0
 13
0.0
 23
0.0
 33
0.0
 16
1.0
 26
0.0
 36
0.0
 17
0.0
 27
1.0
 37
0.0
 76
     0
330
23
  0
LAYOUT
  5
22
102
{ACAD_REACTORS
330
1A
102
}
330
1A
100
AcDbPlotSettings
  1

  2
none_device
  4

  6

 40
0.0
 41
0.0
 42
0.0
 43
0.0
 44
0.0
 45
0.0
 46
0.0
 47
0.0
 48
0.0
 49
0.0
140
0.0
141
0.0
142
1.0
143
1.0
 70
  1712
 72
     0
 73
     0
 74
     0
  7

 75
     0
147
1.0
148
0.0
149
0.0
100
AcDbLayout
  1
Model
 70
     1
 71
     0
 10
0.0
 20
0.0
 11
12.0
 21
9.0
 12
0.0
 22
0.0
 32
0.0
 14
0.0
 24
0.0
 34
0.0
 15
594.0000000000003
 25
420.0000000000002
 35
0.0
146
0.0
 13
0.0
 23
0.0
 33
0.0
 16
1.0
 26
0.0
 36
0.0
 17
0.0
 27
1.0
 37
0.0
 76
     0
330
1F
331
29
  0
MATERIAL
  5
3D
102
{ACAD_REACTORS
330
3B
102
}
102
{ACAD_XDICTIONARY
360
41D
102
}
330
3B
100
AcDbMaterial
  1
ByBlock
  0
MATERIAL
  5
3C
102
{ACAD_REACTORS
330
3B
102
}
102
{ACAD_XDICTIONARY
360
41B
102
}
330
3B
100
AcDbMaterial
  1
ByLayer
  0
MATERIAL
  5
3E
102
{ACAD_REACTORS
330
3B
102
}
102
{ACAD_XDICTIONARY
360
41F
102
}
330
3B
100
AcDbMaterial
  1
Global
  0
MLINESTYLE
  5
18
102
{ACAD_REACTORS
330
17
102
}
330
17
100
AcDbMlineStyle
  2
Standard
 70
     0
  3

 62
   256
 51
90.0
 52
90.0
 71
     2
 49
0.5
 62
   256
  6
BYLAYER
 49
-0.5
 62
   256
  6
BYLAYER
  0
ACDBPLACEHOLDER
  5
F
102
{ACAD_REACTORS
330
E
102
}
330
E
  0
VISUALSTYLE
  5
2F
102
{ACAD_REACTORS
330
2A
102
}
102
{ACAD_XDICTIONARY
360
403
102
}
330
2A
100
AcDbVisualStyle
  2
2dWireframe
 70
     4
 71
     0
 72
     2
 73
     0
 90
        0
 40
-0.6
 41
-30.0
 62
     5
 63
     7
 74
     1
 91
        4
 64
     7
 65
   257
 75
     1
175
     1
 42
1.0
 92
        0
 66
   257
 43
1.0
 76
     1
 77
     6
 78
     2
 67
     7
 79
     5
170
     0
171
     0
290
     0
174
     0
 93
        1
 44
0.0
173
     0
291
     0
 45
0.0
1001
ACAD
1000
AcDbSavedByObjectVersion
1070
     0
  0
VISUALSTYLE
  5
31
102
{ACAD_REACTORS
330
2A
102
}
102
{ACAD_XDICTIONARY
360
407
102
}
330
2A
100
AcDbVisualStyle
  2
3D Hidden
 70
     6
 71
     1
 72
     2
 73
     2
 90
        0
 40
-0.6
 41
-30.0
 62
     5
 63
     7
 74
     2
 91
        2
 64
     7
 65
   257
 75
     2
175
     1
 42
40.0
 92
        0
 66
   257
 43
1.0
 76
     1
 77
     6
 78
     2
 67
     7
 79
     3
170
     0
171
     0
290
     0
174
     0
 93
        1
 44
0.0
173
     0
291
     0
 45
0.0
1001
ACAD
1000
AcDbSavedByObjectVersion
1070
     0
  0
VISUALSTYLE
  5
30
102
{ACAD_REACTORS
330
2A
102
}
102
{ACAD_XDICTIONARY
360
405
102
}
330
2A
100
AcDbVisualStyle
  2
3dWireframe
 70
     5
 71
     0
 72
     2
 73
     0
 90
        0
 40
-0.6
 41
-30.0
 62
     5
 63
     7
 74
     1
 91
        4
 64
     7
 65
   257
 75
     1
175
     1
 42
1.0
 92
        0
 66
   257
 43
1.0
 76
     1
 77
     6
 78
     2
 67
     7
 79
     5
170
     0
171
     0
290
     0
174
     0
 93
        1
 44
0.0
173
     0
291
     0
 45
0.0
1001
ACAD
1000
AcDbSavedByObjectVersion
1070
     0
  0
VISUALSTYLE
  5
32
102
{ACAD_REACTORS
330
2A
102
}
102
{ACAD_XDICTIONARY
360
409
102
}
330
2A
100
AcDbVisualStyle
  2
Basic
 70
     7
 71
     1
 72
     0
 73
     1
 90
        0
 40
-0.6
 41
-30.0
 62
     5
 63
     7
 74
     0
 91
        4
 64
     7
 65
   257
 75
     1
175
     1
 42
1.0
 92
        8
 66
     7
 43
1.0
 76
     1
 77
     6
 78
     2
 67
     7
 79
     5
170
     0
171
     0
290
     0
174
     0
 93
        1
 44
0.0
173
     0
291
     1
 45
0.0
1001
ACAD
1000
AcDbSavedByObjectVersion
1070
     0
  0
VISUALSTYLE
  5
36
102
{ACAD_REACTORS
330
2A
102
}
102
{ACAD_XDICTIONARY
360
411
102
}
330
2A
100
AcDbVisualStyle
  2
Brighten
 70
    12
 71
     2
 72
     2
 73
     0
 90
        0
 40
-0.6
 41
-30.0
 62
     5
 63
     7
 74
     1
 91
        4
 64
     7
 65
   257
 75
     1
175
     1
 42
1.0
 92
        8
 66
     7
 43
1.0
 76
     1
 77
     6
 78
     2
 67
     7
 79
     5
170
     0
171
     0
290
     0
174
     0
 93
        1
 44
50.0
173
     0
291
     1
 45
0.0
1001
ACAD
1000
AcDbSavedByObjectVersion
1070
     0
  0
VISUALSTYLE
  5
3A
102
{ACAD_REACTORS
330
2A
102
}
102
{ACAD_XDICTIONARY
360
419
102
}
330
2A
100
AcDbVisualStyle
  2
ColorChange
 70
    16
 71
     2
 72
     2
 73
     3
 90
        0
 40
-0.6
 41
-30.0
 62
     5
 63
     8
 74
     1
 91
        4
 64
     7
 65
   257
 75
     1
175
     1
 42
1.0
 92
        8
 66
     8
 43
1.0
 76
     1
 77
     6
 78
     2
 67
     7
 79
     5
170
     0
171
     0
290
     0
174
     0
 93
        1
 44
0.0
173
     0
291
     1
 45
0.0
1001
ACAD
1000
AcDbSavedByObjectVersion
1070
     0
  0
VISUALSTYLE
  5
34
102
{ACAD_REACTORS
330
2A
102
}
102
{ACAD_XDICTIONARY
360
40D
102
}
330
2A
100
AcDbVisualStyle
  2
Conceptual
 70
     9
 71
     3
 72
     2
 73
     0
 90
        0
 40
-0.6
 41
-30.0
 62
     5
 63
     7
 74
     2
 91
        2
 64
     7
 65
   257
 75
     1
175
     1
 42
40.0
 92
        8
 66
     7
 43
1.0
 76
     1
 77
     6
 78
     2
 67
     7
 79
     3
170
     0
171
     0
290
     0
174
     0
 93
        1
 44
0.0
173
     0
291
     0
 45
0.0
1001
ACAD
1000
AcDbSavedByObjectVersion
1070
     0
  0
VISUALSTYLE
  5
35
102
{ACAD_REACTORS
330
2A
102
}
102
{ACAD_XDICTIONARY
360
40F
102
}
330
2A
100
AcDbVisualStyle
  2
Dim
 70
    11
 71
     2
 72
     2
 73
     0
 90
        0
 40
-0.6
 41
-30.0
 62
     5
 63
     7
 74
     1
 91
        4
 64
     7
 65
   257
 75
     1
175
     1
 42
1.0
 92
        8
 66
     7
 43
1.0
 76
     1
 77
     6
 78
     2
 67
     7
 79
     5
170
     0
171
     0
290
     0
174
     0
 93
        1
 44
-50.0
173
     0
291
     1
 45
0.0
1001
ACAD
1000
AcDbSavedByObjectVersion
1070
     0
  0
VISUALSTYLE
  5
39
102
{ACAD_REACTORS
330
2A
102
}
102
{ACAD_XDICTIONARY
360
417
102
}
330
2A
100
AcDbVisualStyle
  2
Facepattern
 70
    15
 71
     2
 72
     2
 73
     0
 90
        0
 40
-0.6
 41
-30.0
 62
     5
 63
     7
 74
     1
 91
        4
 64
     7
 65
   257
 75
     1
175
     1
 42
1.0
 92
        8
 66
     7
 43
1.0
 76
     1
 77
     6
 78
     2
 67
     7
 79
     5
170
     0
171
     0
290
     0
174
     0
 93
        1
 44
0.0
173
     0
291
     1
 45
0.0
1001
ACAD
1000
AcDbSavedByObjectVersion
1070
     0
  0
VISUALSTYLE
  5
2B
102
{ACAD_REACTORS
330
2A
102
}
102
{ACAD_XDICTIONARY
360
3FB
102
}
330
2A
100
AcDbVisualStyle
  2
Flat
 70
     0
 71
     2
 72
     1
 73
     1
 90
        2
 40
-0.6
 41
30.0
 62
     5
 63
     7
 74
     0
 91
        4
 64
     7
 65
   257
 75
     1
175
     1
 42
1.0
 92
        8
 66
     7
 43
1.0
 76
     1
 77
     6
 78
     2
 67
     7
 79
     5
170
     0
171
     0
290
     0
174
     0
 93
       13
 44
0.0
173
     0
291
     1
 45
0.0
1001
ACAD
1000
AcDbSavedByObjectVersion
1070
     0
  0
VISUALSTYLE
  5
2C
102
{ACAD_REACTORS
330
2A
102
}
102
{ACAD_XDICTIONARY
360
3FD
102
}
330
2A
100
AcDbVisualStyle
  2
FlatWithEdges
 70
     1
 71
     2
 72
     1
 73
     1
 90
        2
 40
-0.6
 41
30.0
 62
     5
 63
     7
 74
     1
 91
        4
 64
     7
 65
   257
 75
     1
175
     1
 42
1.0
 92
        0
 66
   257
 43
1.0
 76
     1
 77
     6
 78
     2
 67
     7
 79
     5
170
     0
171
     0
290
     0
174
     0
 93
       13
 44
0.0
173
     0
291
     1
 45
0.0
1001
ACAD
1000
AcDbSavedByObjectVersion
1070
     0
  0
VISUALSTYLE
  5
2D
102
{ACAD_REACTORS
330
2A
102
}
102
{ACAD_XDICTIONARY
360
3FF
102
}
330
2A
100
AcDbVisualStyle
  2
Gouraud
 70
     2
 71
     2
 72
     2
 73
     1
 90
        2
 40
-0.6
 41
30.0
 62
     5
 63
     7
 74
     0
 91
        4
 64
     7
 65
   257
 75
     1
175
     1
 42
1.0
 92
        0
 66
     7
 43
1.0
 76
     1
 77
     6
 78
     2
 67
     7
 79
     5
170
     0
171
     0
290
     0
174
     0
 93
       13
 44
0.0
173
     0
291
     1
 45
0.0
1001
ACAD
1000
AcDbSavedByObjectVersion
1070
     0
  0
VISUALSTYLE
  5
2E
102
{ACAD_REACTORS
330
2A
102
}
102
{ACAD_XDICTIONARY
360
401
102
}
330
2A
100
AcDbVisualStyle
  2
GouraudWithEdges
 70
     3
 71
     2
 72
     2
 73
     1
 90
        2
 40
-0.6
 41
30.0
 62
     5
 63
     7
 74
     1
 91
        4
 64
     7
 65
   257
 75
     1
175
     1
 42
1.0
 92
        0
 66
   257
 43
1.0
 76
     1
 77
     6
 78
     2
 67
     7
 79
     5
170
     0
171
     0
290
     0
174
     0
 93
       13
 44
0.0
173
     0
291
     1
 45
0.0
1001
ACAD
1000
AcDbSavedByObjectVersion
1070
     0
  0
VISUALSTYLE
  5
38
102
{ACAD_REACTORS
330
2A
102
}
102
{ACAD_XDICTIONARY
360
415
102
}
330
2A
100
AcDbVisualStyle
  2
Linepattern
 70
    14
 71
     2
 72
     2
 73
     0
 90
        0
 40
-0.6
 41
-30.0
 62
     5
 63
     7
 74
     1
 91
        4
 64
     7
 65
   257
 75
     7
175
     7
 42
1.0
 92
        8
 66
     7
 43
1.0
 76
     1
 77
     6
 78
     2
 67
     7
 79
     5
170
     0
171
     0
290
     0
174
     0
 93
        1
 44
0.0
173
     0
291
     1
 45
0.0
1001
ACAD
1000
AcDbSavedByObjectVersion
1070
     0
  0
VISUALSTYLE
  5
33
102
{ACAD_REACTORS
330
2A
102
}
102
{ACAD_XDICTIONARY
360
40B
102
}
330
2A
100
AcDbVisualStyle
  2
Realistic
 70
     8
 71
     2
 72
     2
 73
     0
 90
        0
 40
-0.6
 41
-30.0
 62
     5
 63
     7
 74
     1
 91
        0
 64
     7
 65
   257
 75
     1
175
     1
 42
1.0
 92
        8
 66
     8
 43
1.0
 76
     1
 77
     6
 78
     2
 67
     7
 79
     5
170
     0
171
     0
290
     0
174
     0
 93
       13
 44
0.0
173
     0
291
     0
 45
0.0
1001
ACAD
1000
AcDbSavedByObjectVersion
1070
     0
  0
VISUALSTYLE
  5
37
102
{ACAD_REACTORS
330
2A
102
}
102
{ACAD_XDICTIONARY
360
413
102
}
330
2A
100
AcDbVisualStyle
  2
Thicken
 70
    13
 71
     2
 72
     2
 73
     0
 90
        0
 40
-0.6
 41
-30.0
 62
     5
 63
     7
 74
     1
 91
        4
 64
     7
 65
   257
 75
     1
175
     1
 42
1.0
 92
       12
 66
     7
 43
1.0
 76
     1
 77
     6
 78
     2
 67
     7
 79
     5
170
     0
171
     0
290
     0
174
     0
 93
        1
 44
0.0
173
     0
291
     1
 45
0.0
1001
ACAD
1000
AcDbSavedByObjectVersion
1070
     0
  0
DICTIONARYVAR
  5
3F9
102
{ACAD_REACTORS
330
3F6
102
}
330
3F6
100
DictionaryVariables
280
     0
  1
2
  0
DICTIONARYVAR
  5
3FA
102
{ACAD_REACTORS
330
3F6
102
}
330
3F6
100
DictionaryVariables
280
     0
  1
1
  0
DICTIONARY
  5
41D
330
3D
100
AcDbDictionary
280
     1
281
     1
  3
ACAD_XREC_ROUNDTRIP
360
41E
  0
DICTIONARY
  5
41B
330
3C
100
AcDbDictionary
280
     1
281
     1
  3
ACAD_XREC_ROUNDTRIP
360
41C
  0
DICTIONARY
  5
41F
330
3E
100
AcDbDictionary
280
     1
281
     1
  3
ACAD_XREC_ROUNDTRIP
360
420
  0
DICTIONARY
  5
403
330
2F
100
AcDbDictionary
280
     1
281
     1
  3
ACAD_XREC_ROUNDTRIP
360
404
  0
DICTIONARY
  5
407
330
31
100
AcDbDictionary
280
     1
281
     1
  3
ACAD_XREC_ROUNDTRIP
360
408
  0
DICTIONARY
  5
405
330
30
100
AcDbDictionary
280
     1
281
     1
  3
ACAD_XREC_ROUNDTRIP
360
406
  0
DICTIONARY
  5
409
330
32
100
AcDbDictionary
280
     1
281
     1
  3
ACAD_XREC_ROUNDTRIP
360
40A
  0
DICTIONARY
  5
411
330
36
100
AcDbDictionary
280
     1
281
     1
  3
ACAD_XREC_ROUNDTRIP
360
412
  0
DICTIONARY
  5
419
330
3A
100
AcDbDictionary
280
     1
281
     1
  3
ACAD_XREC_ROUNDTRIP
360
41A
  0
DICTIONARY
  5
40D
330
34
100
AcDbDictionary
280
     1
281
     1
  3
ACAD_XREC_ROUNDTRIP
360
40E
  0
DICTIONARY
  5
40F
330
35
100
AcDbDictionary
280
     1
281
     1
  3
ACAD_XREC_ROUNDTRIP
360
410
  0
DICTIONARY
  5
417
330
39
100
AcDbDictionary
280
     1
281
     1
  3
ACAD_XREC_ROUNDTRIP
360
418
  0
DICTIONARY
  5
3FB
330
2B
100
AcDbDictionary
280
     1
281
     1
  3
ACAD_XREC_ROUNDTRIP
360
3FC
  0
DICTIONARY
  5
3FD
330
2C
100
AcDbDictionary
280
     1
281
     1
  3
ACAD_XREC_ROUNDTRIP
360
3FE
  0
DICTIONARY
  5
3FF
330
2D
100
AcDbDictionary
280
     1
281
     1
  3
ACAD_XREC_ROUNDTRIP
360
400
  0
DICTIONARY
  5
401
330
2E
100
AcDbDictionary
280
     1
281
     1
  3
ACAD_XREC_ROUNDTRIP
360
402
  0
DICTIONARY
  5
415
330
38
100
AcDbDictionary
280
     1
281
     1
  3
ACAD_XREC_ROUNDTRIP
360
416
  0
DICTIONARY
  5
40B
330
33
100
AcDbDictionary
280
     1
281
     1
  3
ACAD_XREC_ROUNDTRIP
360
40C
  0
DICTIONARY
  5
413
330
37
100
AcDbDictionary
280
     1
281
     1
  3
ACAD_XREC_ROUNDTRIP
360
414
  0
XRECORD
  5
41E
102
{ACAD_REACTORS
330
41D
102
}
330
41D
100
AcDbXrecord
280
     1
102
MATERIAL
148
0.0
149
0.0
149
0.0
 93
        0
 94
      127
282
     0
 72
     1
 77
     1
171
     1
175
     1
179
     1
273
     0
  0
XRECORD
  5
41C
102
{ACAD_REACTORS
330
41B
102
}
330
41B
100
AcDbXrecord
280
     1
102
MATERIAL
148
0.0
149
0.0
149
0.0
 93
        0
 94
      127
282
     0
 72
     1
 77
     1
171
     1
175
     1
179
     1
273
     0
  0
XRECORD
  5
420
102
{ACAD_REACTORS
330
41F
102
}
330
41F
100
AcDbXrecord
280
     1
102
MATERIAL
148
0.0
149
0.0
149
0.0
 93
        0
 94
      127
282
     0
 72
     1
 77
     1
171
     1
175
     1
179
     1
273
     0
  0
XRECORD
  5
404
102
{ACAD_REACTORS
330
403
102
}
330
403
100
AcDbXrecord
280
     1
102
RTVSPropertyOp0
 70
     1
102
RTVSPropertyOp1
 70
     1
102
RTVSPropertyOp2
 70
     1
102
RTVSPropertyOp3
 70
     1
102
RTVSPropertyOp4
 70
     1
102
RTVSPropertyOp5
 70
     1
102
RTVSPropertyOp6
 70
     1
102
RTVSPropertyOp7
 70
     1
102
RTVSPropertyOp8
 70
     1
102
RTVSPropertyOp9
 70
     1
102
RTVSPropertyOp10
 70
     1
102
RTVSPropertyOp11
 70
     1
102
RTVSPropertyOp12
 70
     1
102
RTVSPropertyOp13
 70
     1
102
RTVSPropertyOp14
 70
     1
102
RTVSPropertyOp15
 70
     1
102
RTVSPropertyOp16
 70
     1
102
RTVSPropertyOp17
 70
     1
102
RTVSPropertyOp18
 70
     1
102
RTVSPropertyOp19
 70
     1
102
RTVSPropertyOp20
 70
     1
102
RTVSPropertyOp21
 70
     1
102
RTVSPropertyOp22
 70
     1
102
RTVSPropertyOp23
 70
     1
102
RTVSPropertyOp24
 70
     1
102
RTVSPropertyOp25
 70
     1
102
RTVSPropertyOp26
 70
     1
102
RTVSPropertyOp27
 70
     1
102
RTVSPropertyOp28
 70
     1
102
RTVSPropertyOp29
 70
     1
102
RTVSPropertyOp30
 70
     1
102
RTVSPropertyOp31
 70
     1
102
RTVSPropertyOp32
 70
     1
  0
XRECORD
  5
408
102
{ACAD_REACTORS
330
407
102
}
330
407
100
AcDbXrecord
280
     1
102
RTVSPropertyOp0
 70
     1
102
RTVSPropertyOp1
 70
     1
102
RTVSPropertyOp2
 70
     1
102
RTVSPropertyOp3
 70
     1
102
RTVSPropertyOp4
 70
     1
102
RTVSPropertyOp5
 70
     1
102
RTVSPropertyOp6
 70
     1
102
RTVSPropertyOp7
 70
     1
102
RTVSPropertyOp8
 70
     1
102
RTVSPropertyOp9
 70
     1
102
RTVSPropertyOp10
 70
     1
102
RTVSPropertyOp11
 70
     1
102
RTVSPropertyOp12
 70
     1
102
RTVSPropertyOp13
 70
     1
102
RTVSPropertyOp14
 70
     1
102
RTVSPropertyOp15
 70
     1
102
RTVSPropertyOp16
 70
     1
102
RTVSPropertyOp17
 70
     1
102
RTVSPropertyOp18
 70
     1
102
RTVSPropertyOp19
 70
     1
102
RTVSPropertyOp20
 70
     1
102
RTVSPropertyOp21
 70
     1
102
RTVSPropertyOp22
 70
     1
102
RTVSPropertyOp23
 70
     1
102
RTVSPropertyOp24
 70
     1
102
RTVSPropertyOp25
 70
     1
102
RTVSPropertyOp26
 70
     1
102
RTVSPropertyOp27
 70
     1
102
RTVSPropertyOp28
 70
     1
102
RTVSPropertyOp29
 70
     1
102
RTVSPropertyOp30
 70
     1
102
RTVSPropertyOp31
 70
     1
102
RTVSPropertyOp32
 70
     1
  0
XRECORD
  5
406
102
{ACAD_REACTORS
330
405
102
}
330
405
100
AcDbXrecord
280
     1
102
RTVSPropertyOp0
 70
     1
102
RTVSPropertyOp1
 70
     1
102
RTVSPropertyOp2
 70
     1
102
RTVSPropertyOp3
 70
     1
102
RTVSPropertyOp4
 70
     1
102
RTVSPropertyOp5
 70
     1
102
RTVSPropertyOp6
 70
     1
102
RTVSPropertyOp7
 70
     1
102
RTVSPropertyOp8
 70
     1
102
RTVSPropertyOp9
 70
     1
102
RTVSPropertyOp10
 70
     1
102
RTVSPropertyOp11
 70
     1
102
RTVSPropertyOp12
 70
     1
102
RTVSPropertyOp13
 70
     1
102
RTVSPropertyOp14
 70
     1
102
RTVSPropertyOp15
 70
     1
102
RTVSPropertyOp16
 70
     1
102
RTVSPropertyOp17
 70
     1
102
RTVSPropertyOp18
 70
     1
102
RTVSPropertyOp19
 70
     1
102
RTVSPropertyOp20
 70
     1
102
RTVSPropertyOp21
 70
     1
102
RTVSPropertyOp22
 70
     1
102
RTVSPropertyOp23
 70
     1
102
RTVSPropertyOp24
 70
     1
102
RTVSPropertyOp25
 70
     1
102
RTVSPropertyOp26
 70
     1
102
RTVSPropertyOp27
 70
     1
102
RTVSPropertyOp28
 70
     1
102
RTVSPropertyOp29
 70
     1
102
RTVSPropertyOp30
 70
     1
102
RTVSPropertyOp31
 70
     1
102
RTVSPropertyOp32
 70
     1
  0
XRECORD
  5
40A
102
{ACAD_REACTORS
330
409
102
}
330
409
100
AcDbXrecord
280
     1
102
RTVSPropertyOp0
 70
     1
102
RTVSPropertyOp1
 70
     1
102
RTVSPropertyOp2
 70
     1
102
RTVSPropertyOp3
 70
     1
102
RTVSPropertyOp4
 70
     1
102
RTVSPropertyOp5
 70
     1
102
RTVSPropertyOp6
 70
     1
102
RTVSPropertyOp7
 70
     1
102
RTVSPropertyOp8
 70
     1
102
RTVSPropertyOp9
 70
     1
102
RTVSPropertyOp10
 70
     1
102
RTVSPropertyOp11
 70
     1
102
RTVSPropertyOp12
 70
     1
102
RTVSPropertyOp13
 70
     1
102
RTVSPropertyOp14
 70
     1
102
RTVSPropertyOp15
 70
     1
102
RTVSPropertyOp16
 70
     1
102
RTVSPropertyOp17
 70
     1
102
RTVSPropertyOp18
 70
     1
102
RTVSPropertyOp19
 70
     1
102
RTVSPropertyOp20
 70
     1
102
RTVSPropertyOp21
 70
     1
102
RTVSPropertyOp22
 70
     1
102
RTVSPropertyOp23
 70
     1
102
RTVSPropertyOp24
 70
     1
102
RTVSPropertyOp25
 70
     1
102
RTVSPropertyOp26
 70
     1
102
RTVSPropertyOp27
 70
     1
102
RTVSPropertyOp28
 70
     1
102
RTVSPropertyOp29
 70
     1
102
RTVSPropertyOp30
 70
     1
102
RTVSPropertyOp31
 70
     1
102
RTVSPropertyOp32
 70
     1
  0
XRECORD
  5
412
102
{ACAD_REACTORS
330
411
102
}
330
411
100
AcDbXrecord
280
     1
102
RTVSPropertyOp0
 70
     1
102
RTVSPropertyOp1
 70
     1
102
RTVSPropertyOp2
 70
     1
102
RTVSPropertyOp3
 70
     1
102
RTVSPropertyOp4
 70
     1
102
RTVSPropertyOp5
 70
     1
102
RTVSPropertyOp6
 70
     1
102
RTVSPropertyOp7
 70
     1
102
RTVSPropertyOp8
 70
     1
102
RTVSPropertyOp9
 70
     1
102
RTVSPropertyOp10
 70
     1
102
RTVSPropertyOp11
 70
     1
102
RTVSPropertyOp12
 70
     1
102
RTVSPropertyOp13
 70
     1
102
RTVSPropertyOp14
 70
     1
102
RTVSPropertyOp15
 70
     1
102
RTVSPropertyOp16
 70
     1
102
RTVSPropertyOp17
 70
     1
102
RTVSPropertyOp18
 70
     1
102
RTVSPropertyOp19
 70
     1
102
RTVSPropertyOp20
 70
     1
102
RTVSPropertyOp21
 70
     1
102
RTVSPropertyOp22
 70
     1
102
RTVSPropertyOp23
 70
     1
102
RTVSPropertyOp24
 70
     1
102
RTVSPropertyOp25
 70
     1
102
RTVSPropertyOp26
 70
     1
102
RTVSPropertyOp27
 70
     1
102
RTVSPropertyOp28
 70
     1
102
RTVSPropertyOp29
 70
     1
102
RTVSPropertyOp30
 70
     1
102
RTVSPropertyOp31
 70
     1
102
RTVSPropertyOp32
 70
     1
  0
XRECORD
  5
41A
102
{ACAD_REACTORS
330
419
102
}
330
419
100
AcDbXrecord
280
     1
102
RTVSPropertyOp0
 70
     1
102
RTVSPropertyOp1
 70
     1
102
RTVSPropertyOp2
 70
     1
102
RTVSPropertyOp3
 70
     1
102
RTVSPropertyOp4
 70
     1
102
RTVSPropertyOp5
 70
     1
102
RTVSPropertyOp6
 70
     1
102
RTVSPropertyOp7
 70
     1
102
RTVSPropertyOp8
 70
     1
102
RTVSPropertyOp9
 70
     1
102
RTVSPropertyOp10
 70
     1
102
RTVSPropertyOp11
 70
     1
102
RTVSPropertyOp12
 70
     1
102
RTVSPropertyOp13
 70
     1
102
RTVSPropertyOp14
 70
     1
102
RTVSPropertyOp15
 70
     1
102
RTVSPropertyOp16
 70
     1
102
RTVSPropertyOp17
 70
     1
102
RTVSPropertyOp18
 70
     1
102
RTVSPropertyOp19
 70
     1
102
RTVSPropertyOp20
 70
     1
102
RTVSPropertyOp21
 70
     1
102
RTVSPropertyOp22
 70
     1
102
RTVSPropertyOp23
 70
     1
102
RTVSPropertyOp24
 70
     1
102
RTVSPropertyOp25
 70
     1
102
RTVSPropertyOp26
 70
     1
102
RTVSPropertyOp27
 70
     1
102
RTVSPropertyOp28
 70
     1
102
RTVSPropertyOp29
 70
     1
102
RTVSPropertyOp30
 70
     1
102
RTVSPropertyOp31
 70
     1
102
RTVSPropertyOp32
 70
     1
  0
XRECORD
  5
40E
102
{ACAD_REACTORS
330
40D
102
}
330
40D
100
AcDbXrecord
280
     1
102
RTVSPropertyOp0
 70
     1
102
RTVSPropertyOp1
 70
     1
102
RTVSPropertyOp2
 70
     1
102
RTVSPropertyOp3
 70
     1
102
RTVSPropertyOp4
 70
     1
102
RTVSPropertyOp5
 70
     1
102
RTVSPropertyOp6
 70
     1
102
RTVSPropertyOp7
 70
     1
102
RTVSPropertyOp8
 70
     1
102
RTVSPropertyOp9
 70
     1
102
RTVSPropertyOp10
 70
     1
102
RTVSPropertyOp11
 70
     1
102
RTVSPropertyOp12
 70
     1
102
RTVSPropertyOp13
 70
     1
102
RTVSPropertyOp14
 70
     1
102
RTVSPropertyOp15
 70
     1
102
RTVSPropertyOp16
 70
     1
102
RTVSPropertyOp17
 70
     1
102
RTVSPropertyOp18
 70
     1
102
RTVSPropertyOp19
 70
     1
102
RTVSPropertyOp20
 70
     1
102
RTVSPropertyOp21
 70
     1
102
RTVSPropertyOp22
 70
     1
102
RTVSPropertyOp23
 70
     1
102
RTVSPropertyOp24
 70
     1
102
RTVSPropertyOp25
 70
     1
102
RTVSPropertyOp26
 70
     1
102
RTVSPropertyOp27
 70
     1
102
RTVSPropertyOp28
 70
     1
102
RTVSPropertyOp29
 70
     1
102
RTVSPropertyOp30
 70
     1
102
RTVSPropertyOp31
 70
     1
102
RTVSPropertyOp32
 70
     1
  0
XRECORD
  5
410
102
{ACAD_REACTORS
330
40F
102
}
330
40F
100
AcDbXrecord
280
     1
102
RTVSPropertyOp0
 70
     1
102
RTVSPropertyOp1
 70
     1
102
RTVSPropertyOp2
 70
     1
102
RTVSPropertyOp3
 70
     1
102
RTVSPropertyOp4
 70
     1
102
RTVSPropertyOp5
 70
     1
102
RTVSPropertyOp6
 70
     1
102
RTVSPropertyOp7
 70
     1
102
RTVSPropertyOp8
 70
     1
102
RTVSPropertyOp9
 70
     1
102
RTVSPropertyOp10
 70
     1
102
RTVSPropertyOp11
 70
     1
102
RTVSPropertyOp12
 70
     1
102
RTVSPropertyOp13
 70
     1
102
RTVSPropertyOp14
 70
     1
102
RTVSPropertyOp15
 70
     1
102
RTVSPropertyOp16
 70
     1
102
RTVSPropertyOp17
 70
     1
102
RTVSPropertyOp18
 70
     1
102
RTVSPropertyOp19
 70
     1
102
RTVSPropertyOp20
 70
     1
102
RTVSPropertyOp21
 70
     1
102
RTVSPropertyOp22
 70
     1
102
RTVSPropertyOp23
 70
     1
102
RTVSPropertyOp24
 70
     1
102
RTVSPropertyOp25
 70
     1
102
RTVSPropertyOp26
 70
     1
102
RTVSPropertyOp27
 70
     1
102
RTVSPropertyOp28
 70
     1
102
RTVSPropertyOp29
 70
     1
102
RTVSPropertyOp30
 70
     1
102
RTVSPropertyOp31
 70
     1
102
RTVSPropertyOp32
 70
     1
  0
XRECORD
  5
418
102
{ACAD_REACTORS
330
417
102
}
330
417
100
AcDbXrecord
280
     1
102
RTVSPropertyOp0
 70
     1
102
RTVSPropertyOp1
 70
     1
102
RTVSPropertyOp2
 70
     1
102
RTVSPropertyOp3
 70
     1
102
RTVSPropertyOp4
 70
     1
102
RTVSPropertyOp5
 70
     1
102
RTVSPropertyOp6
 70
     1
102
RTVSPropertyOp7
 70
     1
102
RTVSPropertyOp8
 70
     1
102
RTVSPropertyOp9
 70
     1
102
RTVSPropertyOp10
 70
     1
102
RTVSPropertyOp11
 70
     1
102
RTVSPropertyOp12
 70
     1
102
RTVSPropertyOp13
 70
     1
102
RTVSPropertyOp14
 70
     1
102
RTVSPropertyOp15
 70
     1
102
RTVSPropertyOp16
 70
     1
102
RTVSPropertyOp17
 70
     1
102
RTVSPropertyOp18
 70
     1
102
RTVSPropertyOp19
 70
     1
102
RTVSPropertyOp20
 70
     1
102
RTVSPropertyOp21
 70
     1
102
RTVSPropertyOp22
 70
     1
102
RTVSPropertyOp23
 70
     1
102
RTVSPropertyOp24
 70
     1
102
RTVSPropertyOp25
 70
     1
102
RTVSPropertyOp26
 70
     1
102
RTVSPropertyOp27
 70
     1
102
RTVSPropertyOp28
 70
     1
102
RTVSPropertyOp29
 70
     1
102
RTVSPropertyOp30
 70
     1
102
RTVSPropertyOp31
 70
     1
102
RTVSPropertyOp32
 70
     1
  0
XRECORD
  5
3FC
102
{ACAD_REACTORS
330
3FB
102
}
330
3FB
100
AcDbXrecord
280
     1
102
RTVSPropertyOp0
 70
     1
102
RTVSPropertyOp1
 70
     1
102
RTVSPropertyOp2
 70
     1
102
RTVSPropertyOp3
 70
     1
102
RTVSPropertyOp4
 70
     1
102
RTVSPropertyOp5
 70
     1
102
RTVSPropertyOp6
 70
     1
102
RTVSPropertyOp7
 70
     1
102
RTVSPropertyOp8
 70
     1
102
RTVSPropertyOp9
 70
     1
102
RTVSPropertyOp10
 70
     1
102
RTVSPropertyOp11
 70
     1
102
RTVSPropertyOp12
 70
     1
102
RTVSPropertyOp13
 70
     1
102
RTVSPropertyOp14
 70
     1
102
RTVSPropertyOp15
 70
     1
102
RTVSPropertyOp16
 70
     1
102
RTVSPropertyOp17
 70
     1
102
RTVSPropertyOp18
 70
     1
102
RTVSPropertyOp19
 70
     1
102
RTVSPropertyOp20
 70
     1
102
RTVSPropertyOp21
 70
     1
102
RTVSPropertyOp22
 70
     1
102
RTVSPropertyOp23
 70
     1
102
RTVSPropertyOp24
 70
     1
102
RTVSPropertyOp25
 70
     1
102
RTVSPropertyOp26
 70
     1
102
RTVSPropertyOp27
 70
     1
102
RTVSPropertyOp28
 70
     1
102
RTVSPropertyOp29
 70
     1
102
RTVSPropertyOp30
 70
     1
102
RTVSPropertyOp31
 70
     1
102
RTVSPropertyOp32
 70
     1
  0
XRECORD
  5
3FE
102
{ACAD_REACTORS
330
3FD
102
}
330
3FD
100
AcDbXrecord
280
     1
102
RTVSPropertyOp0
 70
     1
102
RTVSPropertyOp1
 70
     1
102
RTVSPropertyOp2
 70
     1
102
RTVSPropertyOp3
 70
     1
102
RTVSPropertyOp4
 70
     1
102
RTVSPropertyOp5
 70
     1
102
RTVSPropertyOp6
 70
     1
102
RTVSPropertyOp7
 70
     1
102
RTVSPropertyOp8
 70
     1
102
RTVSPropertyOp9
 70
     1
102
RTVSPropertyOp10
 70
     1
102
RTVSPropertyOp11
 70
     1
102
RTVSPropertyOp12
 70
     1
102
RTVSPropertyOp13
 70
     1
102
RTVSPropertyOp14
 70
     1
102
RTVSPropertyOp15
 70
     1
102
RTVSPropertyOp16
 70
     1
102
RTVSPropertyOp17
 70
     1
102
RTVSPropertyOp18
 70
     1
102
RTVSPropertyOp19
 70
     1
102
RTVSPropertyOp20
 70
     1
102
RTVSPropertyOp21
 70
     1
102
RTVSPropertyOp22
 70
     1
102
RTVSPropertyOp23
 70
     1
102
RTVSPropertyOp24
 70
     1
102
RTVSPropertyOp25
 70
     1
102
RTVSPropertyOp26
 70
     1
102
RTVSPropertyOp27
 70
     1
102
RTVSPropertyOp28
 70
     1
102
RTVSPropertyOp29
 70
     1
102
RTVSPropertyOp30
 70
     1
102
RTVSPropertyOp31
 70
     1
102
RTVSPropertyOp32
 70
     1
  0
XRECORD
  5
400
102
{ACAD_REACTORS
330
3FF
102
}
330
3FF
100
AcDbXrecord
280
     1
102
RTVSPropertyOp0
 70
     1
102
RTVSPropertyOp1
 70
     1
102
RTVSPropertyOp2
 70
     1
102
RTVSPropertyOp3
 70
     1
102
RTVSPropertyOp4
 70
     1
102
RTVSPropertyOp5
 70
     1
102
RTVSPropertyOp6
 70
     1
102
RTVSPropertyOp7
 70
     1
102
RTVSPropertyOp8
 70
     1
102
RTVSPropertyOp9
 70
     1
102
RTVSPropertyOp10
 70
     1
102
RTVSPropertyOp11
 70
     1
102
RTVSPropertyOp12
 70
     1
102
RTVSPropertyOp13
 70
     1
102
RTVSPropertyOp14
 70
     1
102
RTVSPropertyOp15
 70
     1
102
RTVSPropertyOp16
 70
     1
102
RTVSPropertyOp17
 70
     1
102
RTVSPropertyOp18
 70
     1
102
RTVSPropertyOp19
 70
     1
102
RTVSPropertyOp20
 70
     1
102
RTVSPropertyOp21
 70
     1
102
RTVSPropertyOp22
 70
     1
102
RTVSPropertyOp23
 70
     1
102
RTVSPropertyOp24
 70
     1
102
RTVSPropertyOp25
 70
     1
102
RTVSPropertyOp26
 70
     1
102
RTVSPropertyOp27
 70
     1
102
RTVSPropertyOp28
 70
     1
102
RTVSPropertyOp29
 70
     1
102
RTVSPropertyOp30
 70
     1
102
RTVSPropertyOp31
 70
     1
102
RTVSPropertyOp32
 70
     1
  0
XRECORD
  5
402
102
{ACAD_REACTORS
330
401
102
}
330
401
100
AcDbXrecord
280
     1
102
RTVSPropertyOp0
 70
     1
102
RTVSPropertyOp1
 70
     1
102
RTVSPropertyOp2
 70
     1
102
RTVSPropertyOp3
 70
     1
102
RTVSPropertyOp4
 70
     1
102
RTVSPropertyOp5
 70
     1
102
RTVSPropertyOp6
 70
     1
102
RTVSPropertyOp7
 70
     1
102
RTVSPropertyOp8
 70
     1
102
RTVSPropertyOp9
 70
     1
102
RTVSPropertyOp10
 70
     1
102
RTVSPropertyOp11
 70
     1
102
RTVSPropertyOp12
 70
     1
102
RTVSPropertyOp13
 70
     1
102
RTVSPropertyOp14
 70
     1
102
RTVSPropertyOp15
 70
     1
102
RTVSPropertyOp16
 70
     1
102
RTVSPropertyOp17
 70
     1
102
RTVSPropertyOp18
 70
     1
102
RTVSPropertyOp19
 70
     1
102
RTVSPropertyOp20
 70
     1
102
RTVSPropertyOp21
 70
     1
102
RTVSPropertyOp22
 70
     1
102
RTVSPropertyOp23
 70
     1
102
RTVSPropertyOp24
 70
     1
102
RTVSPropertyOp25
 70
     1
102
RTVSPropertyOp26
 70
     1
102
RTVSPropertyOp27
 70
     1
102
RTVSPropertyOp28
 70
     1
102
RTVSPropertyOp29
 70
     1
102
RTVSPropertyOp30
 70
     1
102
RTVSPropertyOp31
 70
     1
102
RTVSPropertyOp32
 70
     1
  0
XRECORD
  5
416
102
{ACAD_REACTORS
330
415
102
}
330
415
100
AcDbXrecord
280
     1
102
RTVSPropertyOp0
 70
     1
102
RTVSPropertyOp1
 70
     1
102
RTVSPropertyOp2
 70
     1
102
RTVSPropertyOp3
 70
     1
102
RTVSPropertyOp4
 70
     1
102
RTVSPropertyOp5
 70
     1
102
RTVSPropertyOp6
 70
     1
102
RTVSPropertyOp7
 70
     1
102
RTVSPropertyOp8
 70
     1
102
RTVSPropertyOp9
 70
     1
102
RTVSPropertyOp10
 70
     1
102
RTVSPropertyOp11
 70
     1
102
RTVSPropertyOp12
 70
     1
102
RTVSPropertyOp13
 70
     1
102
RTVSPropertyOp14
 70
     1
102
RTVSPropertyOp15
 70
     1
102
RTVSPropertyOp16
 70
     1
102
RTVSPropertyOp17
 70
     1
102
RTVSPropertyOp18
 70
     1
102
RTVSPropertyOp19
 70
     1
102
RTVSPropertyOp20
 70
     1
102
RTVSPropertyOp21
 70
     1
102
RTVSPropertyOp22
 70
     1
102
RTVSPropertyOp23
 70
     1
102
RTVSPropertyOp24
 70
     1
102
RTVSPropertyOp25
 70
     1
102
RTVSPropertyOp26
 70
     1
102
RTVSPropertyOp27
 70
     1
102
RTVSPropertyOp28
 70
     1
102
RTVSPropertyOp29
 70
     1
102
RTVSPropertyOp30
 70
     1
102
RTVSPropertyOp31
 70
     1
102
RTVSPropertyOp32
 70
     1
  0
XRECORD
  5
40C
102
{ACAD_REACTORS
330
40B
102
}
330
40B
100
AcDbXrecord
280
     1
102
RTVSPropertyOp0
 70
     1
102
RTVSPropertyOp1
 70
     1
102
RTVSPropertyOp2
 70
     1
102
RTVSPropertyOp3
 70
     1
102
RTVSPropertyOp4
 70
     1
102
RTVSPropertyOp5
 70
     1
102
RTVSPropertyOp6
 70
     1
102
RTVSPropertyOp7
 70
     1
102
RTVSPropertyOp8
 70
     1
102
RTVSPropertyOp9
 70
     1
102
RTVSPropertyOp10
 70
     1
102
RTVSPropertyOp11
 70
     1
102
RTVSPropertyOp12
 70
     1
102
RTVSPropertyOp13
 70
     1
102
RTVSPropertyOp14
 70
     1
102
RTVSPropertyOp15
 70
     1
102
RTVSPropertyOp16
 70
     1
102
RTVSPropertyOp17
 70
     1
102
RTVSPropertyOp18
 70
     1
102
RTVSPropertyOp19
 70
     1
102
RTVSPropertyOp20
 70
     1
102
RTVSPropertyOp21
 70
     1
102
RTVSPropertyOp22
 70
     1
102
RTVSPropertyOp23
 70
     1
102
RTVSPropertyOp24
 70
     1
102
RTVSPropertyOp25
 70
     1
102
RTVSPropertyOp26
 70
     1
102
RTVSPropertyOp27
 70
     1
102
RTVSPropertyOp28
 70
     1
102
RTVSPropertyOp29
 70
     1
102
RTVSPropertyOp30
 70
     1
102
RTVSPropertyOp31
 70
     1
102
RTVSPropertyOp32
 70
     1
  0
XRECORD
  5
414
102
{ACAD_REACTORS
330
413
102
}
330
413
100
AcDbXrecord
280
     1
102
RTVSPropertyOp0
 70
     1
102
RTVSPropertyOp1
 70
     1
102
RTVSPropertyOp2
 70
     1
102
RTVSPropertyOp3
 70
     1
102
RTVSPropertyOp4
 70
     1
102
RTVSPropertyOp5
 70
     1
102
RTVSPropertyOp6
 70
     1
102
RTVSPropertyOp7
 70
     1
102
RTVSPropertyOp8
 70
     1
102
RTVSPropertyOp9
 70
     1
102
RTVSPropertyOp10
 70
     1
102
RTVSPropertyOp11
 70
     1
102
RTVSPropertyOp12
 70
     1
102
RTVSPropertyOp13
 70
     1
102
RTVSPropertyOp14
 70
     1
102
RTVSPropertyOp15
 70
     1
102
RTVSPropertyOp16
 70
     1
102
RTVSPropertyOp17
 70
     1
102
RTVSPropertyOp18
 70
     1
102
RTVSPropertyOp19
 70
     1
102
RTVSPropertyOp20
 70
     1
102
RTVSPropertyOp21
 70
     1
102
RTVSPropertyOp22
 70
     1
102
RTVSPropertyOp23
 70
     1
102
RTVSPropertyOp24
 70
     1
102
RTVSPropertyOp25
 70
     1
102
RTVSPropertyOp26
 70
     1
102
RTVSPropertyOp27
 70
     1
102
RTVSPropertyOp28
 70
     1
102
RTVSPropertyOp29
 70
     1
102
RTVSPropertyOp30
 70
     1
102
RTVSPropertyOp31
 70
     1
102
RTVSPropertyOp32
 70
     1
  0
ENDSEC
  0
EOF
